Остаться в Живых / LOST / Сезон 6 / Бонусы (Bonus) (Jack Bender, Stephen Williams, Paul A. Edwards и др.) [2010, США, приключения, мистика, драма, BDRemux] Субтитры Original + rus sub 

Цитировать
Остаться в Живых [Cезон 6] - Бонусы / LOST [Season 6] - Bonus
Год выпуска: 2010
Страна: США
Жанр: приключения, мистика, драма
Продолжительность: 03:15:49
Перевод: Субтитры
Русские субтитры: есть
Субтитры: русские, английские
Режиссёр: Джек Бендер, Стивен Уильямс, Пол А. Эдвардс
В ролях: Мэттью Фокс, Эванджелин Лили, Нэвин Эндрюс, Терри О'Куинн, Доминик Монаган, Джош Холлоуэй, Мэгги Грэйс, Йен Сомерхолдер, Эмили де Рэйвин, Хорхе Гарсиа, Дэниел Дэй Ким, Ким Юн-чжин, Малкольм Дэвид Келли, Гарольд Перрино, Мишель Родригес
Описание: Дополнительные материалы к шестому сезону сериала "Остаться в живых" (LOST). Сюжеты о том как снимался сериал. Размышления и комментарии создателей, актеров, режиссера и сценаристов. Сюжеты о трюках, смешные дубли и т. п.
Доп. информация: Перевод субтитрами. Источник субтитров: лицензионный DVD
Большое спасибо Nez за предоставленные Blu-ray исходники.
Ссылка на предыдущие и альтернативные раздачи:
BDRemux Бонусов 4 сезона
BDRemux Бонусов 5 сезона
Все бонусы LOST
Сэмпл: http://multi-up.com/763414/
Качество: BDRemux
Формат: MKV
Видео кодек: H.264
Аудио кодек: AC3
Видео: MPEG-4 AVC, 1920x1080, 29,970 fps, ~17,6 Mbps avg
Аудио: English: 48000 Hz, DD 2.0 (L, R), 320 kbps
Субтитры: Внутренние: русские (ASS), английские (ASS); Внешние: русские (SRT), английские (SRT)
Главы (Chapters): Оригинальные c Blu-ray

Содержание

01. LOST_S06_Bonus_A_Hero's_Journey.mkv - Путешествие героя
02. LOST_S06_Bonus_Crafting_A_Final_Season.mkv - Создание заключительного сезона
03. LOST_S06_Bonus_Deleted_Scenes.mkv - Удаленные сцены
04. LOST_S06_Bonus_Easter_Eggs.mkv - Пасхальные яйца
05. LOST_S06_Bonus_Lost_Bloopers.mkv - Смешные моменты
06. LOST_S06_Bonus_Lost_in_8-15_A_Crash_Course.mkv - ЛОСТ за 8 мин. 15 сек.
07. LOST_S06_Bonus_Lost_on_Location.mkv - Съёмочные площадки "Остаться в живых"
08. LOST_S06_Bonus_See_You_in_Another_Life_Brotha.mkv - Увидимся в следующей жизни
09. LOST_S06_Bonus_The_New_Man_in_Charge.mkv - Новый Лидер
10. LOST_S06_Bonus_Lost_University_Master's_Program - Цикл обучения

MI

General
Unique ID : 252399967994455795840359102988743478906 (0xBDE27733AD828676A33E3C3F53D60E7A)
Complete name : C:\LOST_S06_Bonus_BDRemux_1080p_AVC_DD5.1\LOST_S06_Bonus_A_Hero's_Journey.mkv
Format : Matroska
Format version : Version 2
File size : 1.14 GiB
Duration : 8mn 57s
Overall bit rate mode : Variable
Overall bit rate : 18.3 Mbps
Encoded date : UTC 2012-09-20 20:57:44
Writing application : mkvmerge v5.2.1 ('A Far Off Place') built on Jan 2 2012 23:21:10
Writing library : libebml v1.2.3 + libmatroska v1.3.0
Video
ID : 1
Format : AVC
Format/Info : Advanced Video Codec
Format profile : High@L4.1
Format settings, CABAC : Yes
Format settings, ReFrames : 4 frames
Codec ID : V_MPEG4/ISO/AVC
Duration : 8mn 57s
Bit rate mode : Variable
Bit rate : 17.6 Mbps
Maximum bit rate : 35.0 Mbps
Width : 1 920 pixels
Height : 1 080 pixels
Display aspect ratio : 16:9
Frame rate : 29.970 fps
Color space : YUV
Chroma subsampling : 4:2:0
Bit depth : 8 bits
Scan type : MBAFF
Bits/(Pixel*Frame) : 0.283
Stream size : 1.10 GiB (96%)
Language : English
Default : Yes
Forced : No
Color primaries : BT.709-5, BT.1361, IEC 61966-2-4, SMPTE RP177
Transfer characteristics : BT.709-5, BT.1361
Matrix coefficients : BT.709-5, BT.1361, IEC 61966-2-4 709, SMPTE RP177
Audio
ID : 2
Format : AC-3
Format/Info : Audio Coding 3
Mode extension : CM (complete main)
Format settings, Endianness : Big
Codec ID : A_AC3
Duration : 8mn 57s
Bit rate mode : Constant
Bit rate : 320 Kbps
Channel(s) : 2 channels
Channel positions : Front: L R
Sampling rate : 48.0 KHz
Bit depth : 16 bits
Compression mode : Lossy
Stream size : 20.5 MiB (2%)
Language : English
Default : Yes
Forced : No
Text #1
ID : 3
Format : ASS
Codec ID : S_TEXT/ASS
Codec ID/Info : Advanced Sub Station Alpha
Compression mode : Lossless
Title : ASS
Language : Russian
Default : Yes
Forced : No
Text #2
ID : 4
Format : ASS
Codec ID : S_TEXT/ASS
Codec ID/Info : Advanced Sub Station Alpha
Compression mode : Lossless
Title : ASS
Language : English
Default : No
Forced : No
Menu
00:00:00.000 : en:Chapter 1
00:08:57.336 : en:Chapter 2

Скриншоты

Другие бонусы к сезонам в BDRemux:
Вы не можете начинать темы
Вы не можете отвечать на сообщения
Вы не можете редактировать свои сообщения
Вы не можете удалять свои сообщения
Вы не можете голосовать в опросах
Вы не можете прикреплять файлы к сообщениям
Вы можете скачивать файлы
!ВНИМАНИЕ!

Сайт не предоставляет электронные версии произведений, а занимается лишь коллекционированием и каталогизацией ссылок, присылаемых и публикуемых на форуме нашими читателями. Если вы являетесь правообладателем какого-либо представленного материала и не желаете, чтобы ссылка на него находилась в нашем каталоге, свяжитесь с нами, и мы незамедлительно удалим ее. Файлы для обмена на трекере предоставлены пользователями сайта, и администрация не несет ответственности за их содержание. Просьба не заливать файлы, защищенные авторскими правами, а также файлы нелегального содержания!

Искали программы, игры, дополнения, музыка mp3, аниме, аудио книги, журналы? Добро пожаловать на свободный торрент трекер B-Tor.Ru, у нас можно скачать бесплатно, без смс и регистрации и прочих ограничений лучшие, отборные сборки программ, игр. Скачать торрентом не составит труда даже не опытному пользователю. Раздачи ежедневно обновляются, только лучшие и качественные раздачи, подробные описания и скриншоты. Огромная коллекция программ для работы со звуком, графикой, дизайном, а так же множество плагинов и инструментов к ним с подробной инструкцией и рекомендациями. Прошивки для навигаторов, карты. Разнообразные игры, для Windows, Linux. В коллекцие есть и старые игры любых жанров, Rpg, Action, Shooter, strategy Множество дополнений, модификаций, сценариев для популярных игр в жанре экш, рпг, гонки, стратегии, логические игры. Множество аддонов и сценариев для Microsoft Flight Simulator Большая коллекция книг, учебников. Если нет возможности купить печатное издание - смело скачивайте цифровую версию книги или, быть может, журнала. Не любите читать - можно загрузить бесплатно аудикнигу. Для веб дизайнеров и программистов так же найдется множество специализированного софта, таких как: редакторы с подсветкой, среды программирования, компоненты, системы управления базами данных, разнообразные скрипты и шаблоны. Не так давно у нас появился материал для автолюбителей и владельцев мото - оригинальные и неоригинальные каталоги запчастей, книги и журналы по ремонту и обслуживанию, видеоуроки, статьи по чип тюнингу, прошивкам. Процедура получения контента элементарная, достаточно просто скачать торрент файл и добавить его в загрузку в вашем торрент клиенте. Если у вас нет специального торрент клиента, вы можете его скачать у нас.