Остаться в Живых / LOST / Сезон 4 / Бонусы (Bonus) (Jack Bender, Stephen Williams, Eric Laneuville и др.) [2008, США, приключения, мистика, драма, BDRemux] Субтитры Original + rus sub 

Цитировать
Остаться в Живых [Cезон 4] - Бонусы / LOST [Season 4] - Bonus
Год выпуска: 2008
Страна: США
Жанр: приключения, мистика, драма
Продолжительность: 04:44:40
Перевод: Субтитры
Русские субтитры: есть
Субтитры: русские, английские
Режиссёр: Jack Bender, Stephen Williams, Eric Laneuville и др.
В ролях: Michael Emerson, Josh Holloway, Matthew Fox, Evangeline Lilly, Terry O'Quinn, Henry Ian Cusick, Naveen Andrews, Emilie de Ravin, Elizabeth Mitchell, Jorge Garcia, Daniel Dae Kim, Yunjin Kim и др.
Описание: Дополнительные материалы к четвёртому сезону сериала "Остаться в живых" (LOST). Сюжеты о том как снимался сериал. Размышления и комментарии создателей, актеров, режиссера и сценаристов. Сюжеты о трюках, смешные дубли и т. п.
Доп. информация: Перевод субтитрами. Источник субтитров: лицензионный DVD
Большое спасибо Nez за предоставленные Blu-ray исходники.
Ссылка на предыдущие и альтернативные раздачи:
BDRip 720p от Nez
Все бонусы LOST
Сэмпл: http://multi-up.com/720460/
Качество: BDRemux
Формат: MKV
Видео кодек: H.264
Аудио кодек: AC3
Видео: MPEG-4 AVC, 1920x1080, 59,940 fps, ~15,8 Mbps avg
Аудио: English: 48 kHz, AC3, 3/2 (L,C,R,l,r) + LFE ch, ~448.00 kbps avg
Субтитры: Внутренние: русские (ASS), английские (ASS); Внешние: русские (SRT), английские (SRT)
Главы (Chapters): Оригинальные c Blu-ray

Содержание

01. LOST_S04_Bonus_Alternate_Endings_Commentary.mkv - Альтернативные концовки 4 сезона, Комментарии
02. LOST_S04_Bonus_Alternate_Endings_Desmond.mkv - Альтернативные концовки 4 сезона, Десмонд
03. LOST_S04_Bonus_Alternate_Endings_Sawyer.mkv - Альтернативные концовки 4 сезона, Сойер
04. LOST_S04_Bonus_Course_of_the_Future_Commentary.mkv - Сцены из будущего, Комментарии
05. LOST_S04_Bonus_Course_of_the_Future_Flash_Forwards.mkv - Сцены из будущего в правильном порядке
06. LOST_S04_Bonus_Deleted_Scenes.mkv - Удалённые сцены
07. LOST_S04_Bonus_Easter_Eggs.mkv - Пасхальные яйца
08. LOST_S04_Bonus_Lost_Bloopers.mkv - Смешные моменты
09. LOST_S04_Bonus_Lost_in_8-15_Recap.mkv - Остаться в живых за 8 мин.15 сек.
10. LOST_S04_Bonus_Lost_Missing_Pieces_(Mobisodes).mkv - Остаться в Живых, Кусочки мозаики
11. LOST_S04_Bonus_Lost_on_Location.mkv - Съёмочные площадки "Остаться в живых"
12. LOST_S04_Bonus_More_from_the_Symphony.mkv - Больше симфонии
13. LOST_S04_Bonus_Offshore_Shoot.mkv - Съёмки в море
14. LOST_S04_Bonus_Soundtrack_of_Survival.mkv - Саундтрек выживания
15. LOST_S04_Bonus_The_Freighter_Folk.mkv - Люди с грузового корабля
16. LOST_S04_Bonus_The_Island_Backlot_Lost_in_Hawaii.mkv - Место съёмок: Гавайи
17. LOST_S04_Bonus_The_Oceanic_Six_A_Conspiracy_of_Lies.mkv - "Шестёрка Oceanic", Заговор лжи
18. LOST_S04_Bonus_The_Right_To_Bear_Arms.mkv - Право на ношение оружия

MI

General
Unique ID : 222494949696218213396998524651432083625 (0xA762F7F6CA98DC4CA36266E78FE480A9)
Complete name : D:\LOST_S04_Bonus_BDRemux_1080p_AVC_DD5.1\LOST_S04_Bonus_Offshore_Shoot.mkv
Format : Matroska
Format version : Version 2
File size : 920 MiB
Duration : 7mn 50s
Overall bit rate mode : Variable
Overall bit rate : 16.4 Mbps
Encoded date : UTC 2012-06-17 18:20:19
Writing application : mkvmerge v5.2.1 ('A Far Off Place') built on Jan 2 2012 23:21:10
Writing library : libebml v1.2.3 + libmatroska v1.3.0
Video
ID : 1
Format : AVC
Format/Info : Advanced Video Codec
Format profile : High@L4.1
Format settings, CABAC : Yes
Format settings, ReFrames : 2 frames
Codec ID : V_MPEG4/ISO/AVC
Duration : 7mn 50s
Bit rate mode : Variable
Bit rate : 15.6 Mbps
Width : 1 920 pixels
Height : 1 080 pixels
Display aspect ratio : 16:9
Frame rate : 59.940 fps
Original frame rate : 29.970 fps
Color space : YUV
Chroma subsampling : 4:2:0
Bit depth : 8 bits
Scan type : Interlaced
Scan order : Top Field First
Bits/(Pixel*Frame) : 0.126
Stream size : 876 MiB (95%)
Language : English
Default : Yes
Forced : No
Audio
ID : 2
Format : AC-3
Format/Info : Audio Coding 3
Mode extension : CM (complete main)
Format settings, Endianness : Big
Codec ID : A_AC3
Duration : 7mn 50s
Bit rate mode : Constant
Bit rate : 448 Kbps
Channel(s) : 6 channels
Channel positions : Front: L C R, Side: L R, LFE
Sampling rate : 48.0 KHz
Bit depth : 16 bits
Compression mode : Lossy
Stream size : 25.1 MiB (3%)
Language : English
Default : Yes
Forced : No
Text #1
ID : 3
Format : ASS
Codec ID : S_TEXT/ASS
Codec ID/Info : Advanced Sub Station Alpha
Compression mode : Lossless
Title : ASS
Language : Russian
Default : Yes
Forced : No
Text #2
ID : 4
Format : ASS
Codec ID : S_TEXT/ASS
Codec ID/Info : Advanced Sub Station Alpha

Скриншоты

Другие бонусы к сезонам в BDRemux:
Вы не можете начинать темы
Вы не можете отвечать на сообщения
Вы не можете редактировать свои сообщения
Вы не можете удалять свои сообщения
Вы не можете голосовать в опросах
Вы не можете прикреплять файлы к сообщениям
Вы можете скачивать файлы
!ВНИМАНИЕ!

Сайт не предоставляет электронные версии произведений, а занимается лишь коллекционированием и каталогизацией ссылок, присылаемых и публикуемых на форуме нашими читателями. Если вы являетесь правообладателем какого-либо представленного материала и не желаете, чтобы ссылка на него находилась в нашем каталоге, свяжитесь с нами, и мы незамедлительно удалим ее. Файлы для обмена на трекере предоставлены пользователями сайта, и администрация не несет ответственности за их содержание. Просьба не заливать файлы, защищенные авторскими правами, а также файлы нелегального содержания!

Искали программы, игры, дополнения, музыка mp3, аниме, аудио книги, журналы? Добро пожаловать на свободный торрент трекер B-Tor.Ru, у нас можно скачать бесплатно, без смс и регистрации и прочих ограничений лучшие, отборные сборки программ, игр. Скачать торрентом не составит труда даже не опытному пользователю. Раздачи ежедневно обновляются, только лучшие и качественные раздачи, подробные описания и скриншоты. Огромная коллекция программ для работы со звуком, графикой, дизайном, а так же множество плагинов и инструментов к ним с подробной инструкцией и рекомендациями. Прошивки для навигаторов, карты. Разнообразные игры, для Windows, Linux. В коллекцие есть и старые игры любых жанров, Rpg, Action, Shooter, strategy Множество дополнений, модификаций, сценариев для популярных игр в жанре экш, рпг, гонки, стратегии, логические игры. Множество аддонов и сценариев для Microsoft Flight Simulator Большая коллекция книг, учебников. Если нет возможности купить печатное издание - смело скачивайте цифровую версию книги или, быть может, журнала. Не любите читать - можно загрузить бесплатно аудикнигу. Для веб дизайнеров и программистов так же найдется множество специализированного софта, таких как: редакторы с подсветкой, среды программирования, компоненты, системы управления базами данных, разнообразные скрипты и шаблоны. Не так давно у нас появился материал для автолюбителей и владельцев мото - оригинальные и неоригинальные каталоги запчастей, книги и журналы по ремонту и обслуживанию, видеоуроки, статьи по чип тюнингу, прошивкам. Процедура получения контента элементарная, достаточно просто скачать торрент файл и добавить его в загрузку в вашем торрент клиенте. Если у вас нет специального торрент клиента, вы можете его скачать у нас.