Остаться в живых: Новый лидер / LOST: The New Man in Charge (Пол Эдвардс / Paul Edwards) [2010, США, приключения, драма, триллер, BDRip 720p] 2x VO + Original + Sub (rus, eng) 

Цитировать
Остаться в живых: Новый лидер / LOST: The New Man in Charge Год выпуска: 2010
Страна: США
Жанр: приключения, драма, триллер
Продолжительность: 00:11:56
Перевод: одноголосый закадровый
Субтитры: русские, английские
Режиссер: Пол Эдвардс / Paul Edwards
В ролях: Хорхе Гарсиа, Майкл Эмерсон, Малкольм Дэвид Келли, Рей Портер, Тед Руни, Франсуа Чау
Описание: Эпилог сериала «Остаться в живых».-Доп. информация:
IMDb: 8.4/10
Sample-Качество: BDRip (Blu-Ray Disc)
Формат: MKV
Видео кодек: H.264
Аудио кодек: AC3, MP3
Видео: 1280x720 (16/9), 7694 kbps, 0,36 bit/pixel, 23,976 fps
Аудио №1: Russian; MP3, 44.1KHz, 2ch, 128 kbps (Одноголосый, TV-Shows)
Аудио №2: Russian; MP3, 44.1KHz, 2ch, 256 kbps (Одноголосый, SouthFilm)
Аудио №3: English; AC3, 48KHz, 6ch, 640 kbps (Оригинал)
Субтитры №1: Russian, SRT
Субтитры №2: English, SRT
Субтитры №3: English, SRT, SDH-

Сравнение с исходником

Rip

Source

MediaInfo

Format : Matroska
File size : 744 MiB
Duration : 11mn 56s
Overall bit rate : 8 711 Kbps
Movie name : LOST The New Man in Charge (2010) BDRip
Encoded date : UTC 2010-10-15 18:49:09
Writing application : mkvmerge v3.4.0 ('Rapunzel') built on May 15 2010 09:38:20
Writing library : libebml v0.8.0 + libmatroska v0.9.0
Video
ID : 1
Format : AVC
Format/Info : Advanced Video Codec
Format profile : High@L4.0
Format settings, CABAC : Yes
Format settings, ReFrames : 8 frames
Muxing mode : Container profile=Unknown@4.0
Codec ID : V_MPEG4/ISO/AVC
Duration : 11mn 56s
Bit rate : 7 514 Kbps
Width : 1 280 pixels
Height : 720 pixels
Display aspect ratio : 16:9
Frame rate : 23.976 fps
Color space : YUV
Chroma subsampling : 4:2:0
Bit depth : 8 bits
Scan type : Progressive
Bits/(Pixel*Frame) : 0.340
Stream size : 642 MiB (86%)
Writing library : x264 core 107 r1745 4785e8e
Encoding settings : cabac=1 / ref=8 / deblock=1:-2:-2 / analyse=0x3:0x133 / me=umh / subme=10 / psy=1 / psy_rd=1.00:0.15 / mixed_ref=1 / me_range=32 / chroma_me=1 / trellis=2 / 8x8dct=1 / cqm=0 / deadzone=21,11 / fast_pskip=1 / chroma_qp_offset=-3 / threads=6 / sliced_threads=0 / nr=0 / decimate=1 / interlaced=0 / constrained_intra=0 / bframes=8 / b_pyramid=2 / b_adapt=2 / b_bias=0 / direct=3 / weightb=1 / open_gop=0 / weightp=2 / keyint=250 / keyint_min=23 / scenecut=40 / intra_refresh=0 / rc_lookahead=120 / rc=crf / mbtree=1 / crf=20.5 / qcomp=0.70 / qpmin=10 / qpmax=51 / qpstep=4 / ip_ratio=1.40 / aq=1:1.05
Language : English
Color primaries : BT.709-5, BT.1361, IEC 61966-2-4, SMPTE RP177
Transfer characteristics : BT.709-5, BT.1361
Matrix coefficients : BT.709-5, BT.1361, IEC 61966-2-4 709, SMPTE RP177
Audio #1
ID : 2
Format : MPEG Audio
Format version : Version 1
Format profile : Layer 3
Mode : Joint stereo
Mode extension : MS Stereo
Codec ID : A_MPEG/L3
Codec ID/Hint : MP3
Duration : 11mn 56s
Bit rate mode : Constant
Bit rate : 128 Kbps
Channel(s) : 2 channels
Sampling rate : 44.1 KHz
Stream size : 10.9 MiB (1%)
Title : VO (TV-Shows)
Writing library : LAME3.98
Language : Russian
Audio #2
ID : 3
Format : MPEG Audio
Format version : Version 1
Format profile : Layer 3
Codec ID : A_MPEG/L3
Codec ID/Hint : MP3
Duration : 11mn 56s
Bit rate mode : Constant
Bit rate : 256 Kbps
Channel(s) : 2 channels
Sampling rate : 44.1 KHz
Stream size : 21.9 MiB (3%)
Title : VO (SouthFilm)
Language : Russian
Audio #3
ID : 4
Format : AC-3
Format/Info : Audio Coding 3
Mode extension : CM (complete main)
Codec ID : A_AC3
Duration : 11mn 56s
Bit rate mode : Constant
Bit rate : 640 Kbps
Channel(s) : 6 channels
Channel positions : Front: L C R, Side: L R, LFE
Sampling rate : 48.0 KHz
Bit depth : 16 bits
Stream size : 54.7 MiB (7%)
Title : Original
Language : English
Text #1
ID : 5
Format : UTF-8
Codec ID : S_TEXT/UTF8
Codec ID/Info : UTF-8 Plain Text
Language : Russian
Text #2
ID : 6
Format : UTF-8
Codec ID : S_TEXT/UTF8
Codec ID/Info : UTF-8 Plain Text
Language : English
Text #3
ID : 7
Format : UTF-8
Codec ID : S_TEXT/UTF8
Codec ID/Info : UTF-8 Plain Text
Title : SDH
Language : English

лог x264

x264 [info]: frame I:156 Avg QP:18.20 size:152234
x264 [info]: frame P:3465 Avg QP:22.01 size: 52156
x264 [info]: frame B:13539 Avg QP:22.37 size: 35742
x264 [info]: consecutive B-frames: 3.4% 0.8% 1.9% 14.6% 14.5% 25.5% 15.3% 21.0% 3.0%
x264 [info]: mb I I16..4: 24.0% 63.8% 12.2%
x264 [info]: mb P I16..4: 0.6% 17.0% 0.6% P16..4: 35.5% 25.8% 4.1% 0.1% 0.1% skip:16.2%
x264 [info]: mb B I16..4: 0.0% 4.1% 0.0% B16..8: 47.1% 17.5% 5.8% direct: 9.9% skip:15.5% L0:48.0% L1:44.4% BI: 7.6%
x264 [info]: 8x8 transform intra:91.9% inter:61.7%
x264 [info]: direct mvs spatial:100.0% temporal:0.0%
x264 [info]: coded y,uvDC,uvAC intra: 97.0% 85.0% 61.9% inter: 54.5% 34.7% 7.8%
x264 [info]: i16 v,h,dc,p: 32% 6% 26% 35%
x264 [info]: i8 v,h,dc,ddl,ddr,vr,hd,vl,hu: 7% 6% 12% 11% 14% 13% 13% 12% 13%
x264 [info]: i4 v,h,dc,ddl,ddr,vr,hd,vl,hu: 10% 8% 4% 10% 15% 15% 13% 12% 13%
x264 [info]: i8c dc,h,v,p: 49% 19% 16% 17%
x264 [info]: Weighted P-Frames: Y:6.4%
x264 [info]: ref P L0: 37.0% 10.3% 21.0% 8.1% 8.3% 5.5% 5.8% 3.2% 0.7% 0.0%
x264 [info]: ref B L0: 64.9% 14.3% 8.6% 5.3% 4.1% 2.2% 0.7%
x264 [info]: ref B L1: 90.4% 9.6%
x264 [info]: kb/s:7694.42
encoded 17160 frames, 2.43 fps, 7694.42 kb/s
- -Релиз от группы -
Вы не можете начинать темы
Вы не можете отвечать на сообщения
Вы не можете редактировать свои сообщения
Вы не можете удалять свои сообщения
Вы не можете голосовать в опросах
Вы не можете прикреплять файлы к сообщениям
Вы можете скачивать файлы
!ВНИМАНИЕ!

Сайт не предоставляет электронные версии произведений, а занимается лишь коллекционированием и каталогизацией ссылок, присылаемых и публикуемых на форуме нашими читателями. Если вы являетесь правообладателем какого-либо представленного материала и не желаете, чтобы ссылка на него находилась в нашем каталоге, свяжитесь с нами, и мы незамедлительно удалим ее. Файлы для обмена на трекере предоставлены пользователями сайта, и администрация не несет ответственности за их содержание. Просьба не заливать файлы, защищенные авторскими правами, а также файлы нелегального содержания!

Искали программы, игры, дополнения, музыка mp3, аниме, аудио книги, журналы? Добро пожаловать на свободный торрент трекер B-Tor.Ru, у нас можно скачать бесплатно, без смс и регистрации и прочих ограничений лучшие, отборные сборки программ, игр. Скачать торрентом не составит труда даже не опытному пользователю. Раздачи ежедневно обновляются, только лучшие и качественные раздачи, подробные описания и скриншоты. Огромная коллекция программ для работы со звуком, графикой, дизайном, а так же множество плагинов и инструментов к ним с подробной инструкцией и рекомендациями. Прошивки для навигаторов, карты. Разнообразные игры, для Windows, Linux. В коллекцие есть и старые игры любых жанров, Rpg, Action, Shooter, strategy Множество дополнений, модификаций, сценариев для популярных игр в жанре экш, рпг, гонки, стратегии, логические игры. Множество аддонов и сценариев для Microsoft Flight Simulator Большая коллекция книг, учебников. Если нет возможности купить печатное издание - смело скачивайте цифровую версию книги или, быть может, журнала. Не любите читать - можно загрузить бесплатно аудикнигу. Для веб дизайнеров и программистов так же найдется множество специализированного софта, таких как: редакторы с подсветкой, среды программирования, компоненты, системы управления базами данных, разнообразные скрипты и шаблоны. Не так давно у нас появился материал для автолюбителей и владельцев мото - оригинальные и неоригинальные каталоги запчастей, книги и журналы по ремонту и обслуживанию, видеоуроки, статьи по чип тюнингу, прошивкам. Процедура получения контента элементарная, достаточно просто скачать торрент файл и добавить его в загрузку в вашем торрент клиенте. Если у вас нет специального торрент клиента, вы можете его скачать у нас.