Божественный ход / Одно движение Божье / Ход Бога / God\'s One Move / The Divine Move / Sin-ui hansu (Пом Гю Чо / Beom-gu Cho) [2014, Южная Корея, драма, криминал, боевик, BDRemux 1080p] 2x DVO + Original (Kor) + Sub (Eng) 

Цитировать
Божественный ход / Sin-ui hansu
--Страна: Южная Корея
Жанр: драма, криминал, боевик
Год выпуска: 2014
Продолжительность: 01:57:44--Перевод 1: Любительский (двухголосый закадровый) den904 & DeadSno
Перевод 2: Любительский (двухголосый закадровый) GREEN TEA по переводу Александра Динерштейна
Субтитры: английские
Оригинальная аудиодорожка: корейский--Режиссер: Пом Гю Чо / Beom-gu Cho
В ролях: Киль Кан Ан, Сон Ги Ан, Чжин Хёк Чхве, У Сон Чон, Ин Квон Ким, Бом Су Ли, Си Ён Ли, Мён Су Ким (II), Иль Хва Чхве, Тхэ Вон Квон, Сон У Пэ, Со Хён Ан, Хэ Кён Чон--Описание: Тхэ-сок — профессиональный игрок в го. Его брат любил играть в го на деньги и был убит группировкой шулеров. Освободившись из тюрьмы, Тхэ-сок собирает команду единомышленников и ставит перед собой цель — отомстить за смерть брата.--imdb | kinopoisk | Сэмпл--Тип релиза: BDRemux 1080p [The.Divine.Move.2014.BluRay.1080p.AVC.DTS-HD.MA5.1-CHDBits]
Контейнер: MKV
Видео: MPEG-4 AVC / 24408 kbps / 1920x1080 / 23,976 fps / 16:9 / High Profile 4.1
Аудио 1: Russian AC3 / 2.0 / 48 kHz / 192 kbps / 16 bits |den904 & DeadSno|
Аудио 2: Russian AC3 / 2.0 / 48 kHz / 192 kbps / 16 bits |DVO, GREEN TEA|
Аудио 3: Korean DTS-HD Master Audio / 5.1 / 48 kHz / 1997 kbps / 16-bit (DTS Core: 5.1 / 48 kHz / 1509 kbps / 16 bits) |original|
Формат субтитров: softsub [SRT]

MediaInfo

Общее
Уникальный идентификатор                 : 220730786477740058792211272046609043259 (0xA60F34007EE0946F8A79474F12BA0F3B)
Полное имя                               : G:\HD\Божественный ход.2014.Blu-Ray.Remux.(1080p).mkv
Формат                                   : Matroska
Версия формата                           : Version 4 / Version 2
Размер файла                             : 22,0 Гбайт
Продолжительность                        : 1 ч. 57 м.
Режим общего битрейта                    : Переменный
Общий поток                              : 26,8 Мбит/сек
Дата кодирования                         : UTC 2017-01-05 21:32:17
Программа кодирования                    : mkvmerge v9.7.1 ('Pandemonium') 64bit
Библиотека кодирования                   : libebml v1.3.4 + libmatroska v1.4.5
Attachments                              : poster.jpg
Видео
Идентификатор                            : 1
Формат                                   : AVC
Формат/Информация                        : Advanced Video Codec
Профиль формата                          : High@L4.1
Параметр CABAC формата                   : Да
Параметр ReFrames формата                : 4 кадра
Идентификатор кодека                     : V_MPEG4/ISO/AVC
Продолжительность                        : 1 ч. 57 м.
Вид битрейта                             : Переменный
Битрейт                                  : 24,4 Мбит/сек
Максимальный битрейт                     : 30,0 Мбит/сек
Ширина                                   : 1920 пикселей
Высота                                   : 1080 пикселей
Соотношение сторон                       : 16:9
Режим частоты кадров                     : Постоянный
Частота кадров                           : 23,976 (24000/1001) кадра/сек
Стандарт вещания                         : NTSC
Цветовое пространство                    : YUV
Субдискретизация насыщенности            : 4:2:0
Битовая глубина                          : 8 бит
Тип развёртки                            : Прогрессивная
Бит/(Пиксели*Кадры)                      : 0.491
Размер потока                            : 20,1 Гбайт (91%)
Default                                  : Да
Forced                                   : Нет
Цветовой диапазон                        : Limited
Основные цвета                           : BT.709
Характеристики трансфера                 : BT.709
Коэффициенты матрицы                     : BT.709
Аудио #1
Идентификатор                            : 2
Формат                                   : AC-3
Формат/Информация                        : Audio Coding 3
Расширение режима                        : CM (complete main)
Параметр Endianness формата              : Big
Идентификатор кодека                     : A_AC3
Продолжительность                        : 1 ч. 57 м.
Вид битрейта                             : Постоянный
Битрейт                                  : 192 Кбит/сек
Каналы                                   : 2 канала
Расположение каналов                     : Front: L R
Частота                                  : 48,0 КГц
Частота кадров                           : 31,250 кадров/сек (1536 spf)
Битовая глубина                          : 16 бит
Метод сжатия                             : С потерями
Размер потока                            : 162 Мбайт (1%)
Заголовок                                : den904 & DeadSno
Язык                                     : Russian
Default                                  : Да
Forced                                   : Нет
Аудио #2
Идентификатор                            : 3
Формат                                   : AC-3
Формат/Информация                        : Audio Coding 3
Расширение режима                        : CM (complete main)
Параметр Endianness формата              : Big
Идентификатор кодека                     : A_AC3
Продолжительность                        : 1 ч. 57 м.
Вид битрейта                             : Постоянный
Битрейт                                  : 192 Кбит/сек
Каналы                                   : 2 канала
Расположение каналов                     : Front: L R
Частота                                  : 48,0 КГц
Частота кадров                           : 31,250 кадров/сек (1536 spf)
Битовая глубина                          : 16 бит
Метод сжатия                             : С потерями
Размер потока                            : 162 Мбайт (1%)
Заголовок                                : DVO, GREEN TEA
Язык                                     : Russian
Default                                  : Нет
Forced                                   : Нет
Аудио #3
Идентификатор                            : 4
Формат                                   : DTS
Формат/Информация                        : Digital Theater Systems
Профиль формата                          : MA / Core
Режим                                    : 16
Параметр Endianness формата              : Big
Идентификатор кодека                     : A_DTS
Продолжительность                        : 1 ч. 57 м.
Вид битрейта                             : Переменный / Постоянный
Битрейт                                  : 1997 Кбит/сек / 1509 Кбит/сек
Каналы                                   : 6 каналов
Расположение каналов                     : Front: L C R, Side: L R, LFE
Частота                                  : 48,0 КГц
Частота кадров                           : 93,750 кадра/сек (512 spf)
Битовая глубина                          : 16 бит
Метод сжатия                             : Без потерь / Lossy
Размер потока                            : 1,64 Гбайт (7%)
Язык                                     : Korean
Default                                  : Нет
Forced                                   : Нет
Текст
Идентификатор                            : 5
Формат                                   : UTF-8
Идентификатор кодека                     : S_TEXT/UTF8
Идентификатор кодека/Информация          : UTF-8 Plain Text
Продолжительность                        : 1 ч. 54 м.
Битрейт                                  : 34 бит/сек
Count of elements                        : 930
Размер потока                            : 28,9 Кбайт (0%)
Язык                                     : English
Default                                  : Нет
Forced                                   : Нет
Меню
00:00:00.000                             : :Chapter 01
00:03:36.758                             : :Chapter 02
00:12:03.848                             : :Chapter 03
00:20:33.106                             : :Chapter 04
00:35:33.256                             : :Chapter 05
00:45:32.938                             : :Chapter 06
00:51:32.589                             : :Chapter 07
00:58:36.179                             : :Chapter 08
01:04:33.202                             : :Chapter 09
01:12:59.750                             : :Chapter 10
01:18:00.676                             : :Chapter 11
01:26:56.169                             : :Chapter 12
01:34:04.388                             : :Chapter 13
01:39:27.002                             : :Chapter 14
01:50:45.472                             : :Chapter 15
01:53:52.492                             : :Chapter 16

Скриншоты


Вы не можете начинать темы
Вы не можете отвечать на сообщения
Вы не можете редактировать свои сообщения
Вы не можете удалять свои сообщения
Вы не можете голосовать в опросах
Вы не можете прикреплять файлы к сообщениям
Вы можете скачивать файлы
!ВНИМАНИЕ!

Сайт не предоставляет электронные версии произведений, а занимается лишь коллекционированием и каталогизацией ссылок, присылаемых и публикуемых на форуме нашими читателями. Если вы являетесь правообладателем какого-либо представленного материала и не желаете, чтобы ссылка на него находилась в нашем каталоге, свяжитесь с нами, и мы незамедлительно удалим ее. Файлы для обмена на трекере предоставлены пользователями сайта, и администрация не несет ответственности за их содержание. Просьба не заливать файлы, защищенные авторскими правами, а также файлы нелегального содержания!

Искали программы, игры, дополнения, музыка mp3, аниме, аудио книги, журналы? Добро пожаловать на свободный торрент трекер B-Tor.Ru, у нас можно скачать бесплатно, без смс и регистрации и прочих ограничений лучшие, отборные сборки программ, игр. Скачать торрентом не составит труда даже не опытному пользователю. Раздачи ежедневно обновляются, только лучшие и качественные раздачи, подробные описания и скриншоты. Огромная коллекция программ для работы со звуком, графикой, дизайном, а так же множество плагинов и инструментов к ним с подробной инструкцией и рекомендациями. Прошивки для навигаторов, карты. Разнообразные игры, для Windows, Linux. В коллекцие есть и старые игры любых жанров, Rpg, Action, Shooter, strategy Множество дополнений, модификаций, сценариев для популярных игр в жанре экш, рпг, гонки, стратегии, логические игры. Множество аддонов и сценариев для Microsoft Flight Simulator Большая коллекция книг, учебников. Если нет возможности купить печатное издание - смело скачивайте цифровую версию книги или, быть может, журнала. Не любите читать - можно загрузить бесплатно аудикнигу. Для веб дизайнеров и программистов так же найдется множество специализированного софта, таких как: редакторы с подсветкой, среды программирования, компоненты, системы управления базами данных, разнообразные скрипты и шаблоны. Не так давно у нас появился материал для автолюбителей и владельцев мото - оригинальные и неоригинальные каталоги запчастей, книги и журналы по ремонту и обслуживанию, видеоуроки, статьи по чип тюнингу, прошивкам. Процедура получения контента элементарная, достаточно просто скачать торрент файл и добавить его в загрузку в вашем торрент клиенте. Если у вас нет специального торрент клиента, вы можете его скачать у нас.