Крадущийся тигр, затаившийся дракон: Меч судьбы / Crouching Tiger, Hidden Dragon: Sword of Destiny (Юэнь Воо-пин / Yuen Woo-ping) [2016, Китай, США, боевик, драма, BDRemux 1080p] AVO (А. Дольский) + MVO + Sub Eng + Eng + Original Chi 

Цитировать
Крадущийся тигр, затаившийся дракон: Меч судьбы / Crouching Tiger, Hidden Dragon: Sword of Destiny
Страна: Китай, США
Студия: China Film Group, Netflix, Pegasus Taihe Entertainment
Жанр: фэнтези, боевик, драма, приключения
Год выпуска: 2016
Продолжительность: 01:42:31
Перевод 1: Авторский (одноголосый закадровый) А. Дольский
Перевод 2: Любительский (многоголосый закадровый) Parovoz Production
Субтитры: английские
Оригинальная аудиодорожка: китайский
Режиссер: Юэнь Воо-пин / Yuen Woo-ping
В ролях: Донни Йен, Мишель Йео, Гарри Шам мл., Джейсон Скотт Ли, Евгения Йуан, Жужу Чан, Крис Пэнг, Дэррил Квон, Роджер Йуан и др.
Описание: Если верить легендам, то в мире существует меч, который наделяет своего обладателя сверхъестественной силой, а также позволяет создавать ход реальных исторических событий. Называется такой меч - Меч судьбы. Да вот, что многие, которые занимались его поиском так и не могли отыскать драгоценную вещь.
Великие мастера боевых искусств и повелители только мечтают о том, чтобы стать обладателями меча и ощутить всю мощность его силы. Если меч попадет в хорошие руки, то принесет всему миру доброту и свет, но когда он попадет в плохие руки, то мир погрузится во тьму. Однажды, этот меч уже попадал в руки злодеев, но герой, пожертвовав своей жизнью, смог вернуть его на место. Сейчас ведется жестокая борьба вражеских кланов за власть, но мечь еще не найден...
II Сэмпл II IMDB II
Релиз группа:

Доп. информация:
За существование авторского перевода благодарим непосредственно Андрея Дольского и пользователей Юрай, vedigo
За английскую дорогу спасибо Ash61
Тип релиза: BDRemux 1080p
Контейнер: MKV
Видео: AVC / 1920x1080 / 16:9 / 23.976fps / 28400Kbps / High@L4.1
Аудио 1: DTS-HD MA / 48.0 KHz / 6ch / 2048kbps / 16bit (DTS Core 48.0 KHz / 6ch / 1509kbps / 16bit) Rus / AVO / А. Дольский
Аудио 2: AC3 / 48.0 KHz / 2ch. / 192kbps / Rus / MVO / Parovoz Production
Аудио 3: AC3 / 48.0 KHz / 6ch. / 640kbps / Eng
Аудио 4: DTS-HD MA / 96.0 KHz / 6ch / 3684kbps / 24bit (DTS Core 48.0 KHz / 6ch / 1509kbps / 24bit) Cantonese
Аудио 4: DTS-HD MA / 96.0 KHz / 6ch / 3706kbps / 24bit (DTS Core 48.0 KHz / 6ch / 1509kbps / 24bit) Mandarin

MediaInfo

Общее
Уникальный идентификатор : 176691610440736419544907468323628455408 (0x84ED90FC1DA54AAF8CA23549172B15F0)
Полное имя : D:\_Torrent\temp\Crouching.Tiger.Hidden.Dragon.Sword.of.Destiny.2016.BDRemux.1080p_by_vedigo.mkv
Формат : Matroska
Версия формата : Version 4 / Version 2
Размер файла : 27,7 Гбайт
Продолжительность : 1 ч. 42 м.
Режим общего битрейта : Переменный
Общий поток : 38,6 Мбит/сек
Название фильма : Crouching.Tiger.Hidden.Dragon.Sword.of.Destiny.2016.BDRemux.1080p_by_vedigo
Дата кодирования : UTC 2016-07-16 21:49:37
Программа кодирования : mkvmerge v9.3.1 ('Mask Machine') 64bit
Библиотека кодирования : libebml v1.3.4 + libmatroska v1.4.5
Видео
Идентификатор : 1
Формат : AVC
Формат/Информация : Advanced Video Codec
Профиль формата : High@L4.1
Параметр CABAC формата : Да
Параметр ReFrames формата : 4 кадра
Параметр GOP формата : M=3, N=24
Идентификатор кодека : V_MPEG4/ISO/AVC
Продолжительность : 1 ч. 42 м.
Вид битрейта : Переменный
Битрейт : 28,4 Мбит/сек
Максимальный битрейт : 32,0 Мбит/сек
Ширина : 1920 пикселей
Высота : 1080 пикселей
Соотношение сторон : 16:9
Режим частоты кадров : Постоянный
Частота кадров : 23,976 (24000/1001) кадра/сек
Стандарт вещания : NTSC
Цветовое пространство : YUV
Субдискретизация насыщенности : 4:2:0
Битовая глубина : 8 бит
Тип развёртки : Прогрессивная
Бит/(Пиксели*Кадры) : 0.571
Размер потока : 20,3 Гбайт (73%)
Заголовок : Crouching.Tiger.Hidden.Dragon.Sword.of.Destiny.2016.BDRemux.1080p_by_vedigo
Default : Да
Forced : Нет
Цветовой диапазон : Limited
Основные цвета : BT.709
Характеристики трансфера : BT.709
Коэффициенты матрицы : BT.709
Аудио #1
Идентификатор : 2
Формат : DTS
Формат/Информация : Digital Theater Systems
Профиль формата : MA / Core
Режим : 16
Параметр Endianness формата : Big
Идентификатор кодека : A_DTS
Продолжительность : 1 ч. 42 м.
Вид битрейта : Переменный / Постоянный
Битрейт : 2048 Кбит/сек / 1509 Кбит/сек
Каналы : 6 каналов
Расположение каналов : Front: L C R, Side: L R, LFE
Частота : 48,0 КГц
Частота кадров : 93,750 кадра/сек (512 spf)
Битовая глубина : 16 бит
Метод сжатия : Без потерь / Lossy
Размер потока : 1,45 Гбайт (5%)
Заголовок : AVO @ А. Дольский
Язык : Russian
Default : Да
Forced : Нет
Аудио #2
Идентификатор : 3
Формат : AC-3
Формат/Информация : Audio Coding 3
Расширение режима : CM (complete main)
Параметр Endianness формата : Big
Идентификатор кодека : A_AC3
Продолжительность : 1 ч. 42 м.
Вид битрейта : Постоянный
Битрейт : 192 Кбит/сек
Каналы : 2 канала
Расположение каналов : Front: L R
Частота : 48,0 КГц
Частота кадров : 31,250 кадров/сек (1536 spf)
Метод сжатия : С потерями
Размер потока : 141 Мбайт (0%)
Заголовок : MVO @ Parovoz Production
Язык : Russian
Default : Нет
Forced : Нет
Аудио #3
Идентификатор : 4
Формат : AC-3
Формат/Информация : Audio Coding 3
Расширение режима : CM (complete main)
Параметр Endianness формата : Big
Идентификатор кодека : A_AC3
Продолжительность : 1 ч. 42 м.
Вид битрейта : Постоянный
Битрейт : 640 Кбит/сек
Каналы : 6 каналов
Расположение каналов : Front: L C R, Side: L R, LFE
Частота : 48,0 КГц
Частота кадров : 31,250 кадров/сек (1536 spf)
Метод сжатия : С потерями
Размер потока : 469 Мбайт (2%)
Заголовок : eng
Язык : English
Default : Нет
Forced : Нет
Аудио #4
Идентификатор : 5
Формат : DTS
Формат/Информация : Digital Theater Systems
Профиль формата : MA / Core
Режим : 16
Параметр Endianness формата : Big
Идентификатор кодека : A_DTS
Продолжительность : 1 ч. 42 м.
Вид битрейта : Переменный / Постоянный
Битрейт : 3684 Кбит/сек / 1509 Кбит/сек
Каналы : 6 каналов
Расположение каналов : Front: L C R, Side: L R, LFE
Частота : 96,0 КГц / 48,0 КГц
Частота кадров : 93,750 кадра/сек (512 spf)
Битовая глубина : 24 бит
Метод сжатия : Без потерь / Lossy
Размер потока : 2,64 Гбайт (10%)
Заголовок : Cantonese
Язык : Chinese
Default : Нет
Forced : Нет
Аудио #5
Идентификатор : 6
Формат : DTS
Формат/Информация : Digital Theater Systems
Профиль формата : MA / Core
Режим : 16
Параметр Endianness формата : Big
Идентификатор кодека : A_DTS
Продолжительность : 1 ч. 42 м.
Вид битрейта : Переменный / Постоянный
Битрейт : 3706 Кбит/сек / 1509 Кбит/сек
Каналы : 6 каналов
Расположение каналов : Front: L C R, Side: L R, LFE
Частота : 96,0 КГц / 48,0 КГц
Частота кадров : 93,750 кадра/сек (512 spf)
Битовая глубина : 24 бит
Метод сжатия : Без потерь / Lossy
Размер потока : 2,65 Гбайт (10%)
Заголовок : Mandarin
Язык : Chinese
Default : Нет
Forced : Нет
Текст
Идентификатор : 7
Формат : UTF-8
Идентификатор кодека : S_TEXT/UTF8
Идентификатор кодека/Информация : UTF-8 Plain Text
Продолжительность : 1 ч. 28 м.
Битрейт : 29 бит/сек
Count of elements : 710
Размер потока : 19,0 Кбайт (0%)
Заголовок : Subtitle eng
Язык : English
Default : Нет
Forced : Нет
Меню
00:00:00.000 : :Глава 01
00:07:52.513 : :Глава 02
00:17:19.288 : :Глава 03
00:23:26.196 : :Глава 04
00:35:37.552 : :Глава 05
00:45:17.840 : :Глава 06
00:50:26.148 : :Глава 07
01:09:58.903 : :Глава 08
01:18:32.499 : :Глава 09
01:26:14.252 : :Глава 10
01:32:28.876 : :Глава 11

Скриншоты


Вы не можете начинать темы
Вы не можете отвечать на сообщения
Вы не можете редактировать свои сообщения
Вы не можете удалять свои сообщения
Вы не можете голосовать в опросах
Вы не можете прикреплять файлы к сообщениям
Вы можете скачивать файлы
!ВНИМАНИЕ!

Сайт не предоставляет электронные версии произведений, а занимается лишь коллекционированием и каталогизацией ссылок, присылаемых и публикуемых на форуме нашими читателями. Если вы являетесь правообладателем какого-либо представленного материала и не желаете, чтобы ссылка на него находилась в нашем каталоге, свяжитесь с нами, и мы незамедлительно удалим ее. Файлы для обмена на трекере предоставлены пользователями сайта, и администрация не несет ответственности за их содержание. Просьба не заливать файлы, защищенные авторскими правами, а также файлы нелегального содержания!

Искали программы, игры, дополнения, музыка mp3, аниме, аудио книги, журналы? Добро пожаловать на свободный торрент трекер B-Tor.Ru, у нас можно скачать бесплатно, без смс и регистрации и прочих ограничений лучшие, отборные сборки программ, игр. Скачать торрентом не составит труда даже не опытному пользователю. Раздачи ежедневно обновляются, только лучшие и качественные раздачи, подробные описания и скриншоты. Огромная коллекция программ для работы со звуком, графикой, дизайном, а так же множество плагинов и инструментов к ним с подробной инструкцией и рекомендациями. Прошивки для навигаторов, карты. Разнообразные игры, для Windows, Linux. В коллекцие есть и старые игры любых жанров, Rpg, Action, Shooter, strategy Множество дополнений, модификаций, сценариев для популярных игр в жанре экш, рпг, гонки, стратегии, логические игры. Множество аддонов и сценариев для Microsoft Flight Simulator Большая коллекция книг, учебников. Если нет возможности купить печатное издание - смело скачивайте цифровую версию книги или, быть может, журнала. Не любите читать - можно загрузить бесплатно аудикнигу. Для веб дизайнеров и программистов так же найдется множество специализированного софта, таких как: редакторы с подсветкой, среды программирования, компоненты, системы управления базами данных, разнообразные скрипты и шаблоны. Не так давно у нас появился материал для автолюбителей и владельцев мото - оригинальные и неоригинальные каталоги запчастей, книги и журналы по ремонту и обслуживанию, видеоуроки, статьи по чип тюнингу, прошивкам. Процедура получения контента элементарная, достаточно просто скачать торрент файл и добавить его в загрузку в вашем торрент клиенте. Если у вас нет специального торрент клиента, вы можете его скачать у нас.