История Хатико / Hachi-ko / Hachikô monogatari / ハチ公物語 (Сеидзиро Кояма / Seijirô Kôyama) [1987, Япония, драма, BDRip 720p] DVO + Sub Rus, Eng + Original Jap 

Цитировать
История Хатико / Hachi-ko / Hachikô monogatari / ハチ公物語-Страна: Япония
Жанр: драма
Год выпуска: 1987
Продолжительность: 01:47:47-Перевод: Любительский (двухголосый закадровый) CinemaSET GROUP
Субтитры: русские , английские
Оригинальная аудиодорожка: японский-Режиссер: Сеидзиро Кояма / Seijirô Kôyama-В ролях:Тацуя Накадаи, Каору Ячигуса, Тошио Янагиба, Тошинори Оми, Мако Ишино, Масуми Харукава, Кеи Ямамото, Шинго Ямаширо, Норихеи Мики, Кин Сугаи, Токико Като, Хироюки Нагато, Такахиро Тамура-Описание:
«Хатико» — верная и преданная Акита. Впрочем, речь идет не обо всей породе акита, а лишь об одной собаке, ставшей известной каждому японцу.
Щенок появился на свет в северной части префектуры Акита в ноябре 1923 года. Фермер, когда-то учившийся в Сельскохозяйственной школе при Императорском университете (ныне — Токийский университет), решил подарить живую игрушку своему бывшему профессору Хидэсабуро Уэно. Тот всегда держал дома собак, отдавая предпочтение крупным псам. Уэно назвал нового четвероногого воспитанника Хати (по-японски — Восьмой), так как это была его восьмая по счету собака. Когда Хати подрос, он стал постоянно сопровождать хозяина. Тот ежедневно уезжал в город по делам.
Поэтому Хати провожал профессора до входа на железнодорожную станцию Сибуя, а в 3 часа дня вновь приходил к станции, чтобы встретить его. Но однажды, это случилось 21 мая 1925 года, у профессора прямо на работе случился инфаркт. Вызванные врачи не сумели спасти его. Домой г-н Уэно уже не вернулся. Но как это было объяснить собаке? Хати каждый день приходил к станции и терпеливо, до позднего вечера ожидал запропавшего хозяина…-Релиз группы: -Сэмпл: Скачать-Тип релиза: BDRip 720p
Контейнер: MKV-Видео: 1 280x692 (1.85:1); 7 692 Kbps; 23.976 fps; 0.362 bpp
Аудио 1: Russian; AC3; 48.0 KHz; 2ch; 192 Kbps
Аудио 2: Japanese; AC3; 48.0 KHz; 2ch; 640 Kbps
Формат субтитров: softsub (SRT)

MediaInfo

Format : Matroska
Format version : Version 4 / Version 2
File size : 6.42 GiB
Duration : 1h 47mn
Overall bit rate : 8 527 Kbps
Encoded date : UTC 2015-12-17 13:52:06
Writing application : mkvmerge v8.3.0 ('Over the Horizon') 64bit
Writing library : libebml v1.3.1 + libmatroska v1.4.2
Attachements : poster.jpg
DURATION : 01:46:47.133000000
NUMBER_OF_FRAMES : 792
NUMBER_OF_BYTES : 19762
_STATISTICS_WRITING_APP : mkvmerge v8.3.0 ('Over the Horizon') 64bit
_STATISTICS_WRITING_DATE_UT : 2015-12-17 13:52:06
_STATISTICS_TAGS : BPS DURATION NUMBER_OF_FRAMES NUMBER_OF_BYTES
Video
ID : 1
Format : AVC
Format/Info : Advanced Video Codec
Format profile : High@L4.1
Format settings, CABAC : Yes
Format settings, ReFrames : 9 frames
Codec ID : V_MPEG4/ISO/AVC
Duration : 1h 47mn
Bit rate : 7 692 Kbps
Width : 1 280 pixels
Height : 692 pixels
Display aspect ratio : 1.85:1
Frame rate mode : Constant
Frame rate : 23.976 fps
Color space : YUV
Chroma subsampling : 4:2:0
Bit depth : 8 bits
Scan type : Progressive
Bits/(Pixel*Frame) : 0.362
Stream size : 5.67 GiB (88%)
Writing library : x264 core 129 r2245+704+36 8e61944 tMod+MixAQ [8-bit@4:2:0 X86_64]
Encoding settings : cabac=1 / ref=9 / deblock=1:-3:-3 / analyse=0x3:0x133 / me=umh / subme=11 / psy=1 / fade_compensate=0.00 / psy_rd=1.05:0.10 / mixed_ref=1 / me_range=32 / chroma_me=1 / trellis=2 / 8x8dct=1 / cqm=0 / deadzone=21,11 / fast_pskip=0 / chroma_qp_offset=-3 / threads=18 / lookahead_threads=3 / sliced_threads=0 / nr=0 / decimate=0 / interlaced=0 / bluray_compat=0 / constrained_intra=0 / fgo=0 / bframes=10 / b_pyramid=2 / b_adapt=2 / b_bias=0 / direct=3 / weightb=1 / open_gop=0 / weightp=2 / keyint=250 / keyint_min=23 / scenecut=40 / intra_refresh=0 / rc=2pass / mbtree=0 / bitrate=7692 / ratetol=1.0 / qcomp=0.60 / qpmin=0 / qpmax=69 / qpstep=4 / cplxblur=20.0 / qblur=0.5 / ip_ratio=1.20 / pb_ratio=1.10 / aq=1 / aq-strength=0.85 / aq-sensitivity=10.00 / aq-ifactor=1.00 / aq-pfactor=1.00 / aq-bfactor=1.00 / aq2=0
Language : Japanese
Default : No
Forced : No
DURATION : 01:47:47.461000000
NUMBER_OF_FRAMES : 155064
NUMBER_OF_BYTES : 6218604400
_STATISTICS_WRITING_APP : mkvmerge v8.3.0 ('Over the Horizon') 64bit
_STATISTICS_WRITING_DATE_UT : 2015-12-17 13:52:06
_STATISTICS_TAGS : BPS DURATION NUMBER_OF_FRAMES NUMBER_OF_BYTES
Audio #1
ID : 2
Format : AC-3
Format/Info : Audio Coding 3
Mode extension : CM (complete main)
Format settings, Endianness : Big
Codec ID : A_AC3
Duration : 1h 47mn
Bit rate mode : Constant
Bit rate : 192 Kbps
Channel(s) : 2 channels
Channel positions : Front: L R
Sampling rate : 48.0 KHz
Compression mode : Lossy
Delay relative to video : 1s 0ms
Stream size : 148 MiB (2%)
Title : DVO CinemaSET GROUP
Language : Russian
Default : Yes
Forced : No
Audio #2
ID : 3
Format : AC-3
Format/Info : Audio Coding 3
Mode extension : CM (complete main)
Format settings, Endianness : Big
Codec ID : A_AC3
Duration : 1h 47mn
Bit rate mode : Constant
Bit rate : 640 Kbps
Channel(s) : 2 channels
Channel positions : Front: L R
Sampling rate : 48.0 KHz
Compression mode : Lossy
Stream size : 493 MiB (8%)
Language : Japanese
Default : No
Forced : No
Text #1
ID : 4
Format : UTF-8
Codec ID : S_TEXT/UTF8
Codec ID/Info : UTF-8 Plain Text
Language : Russian
Default : No
Forced : No
Text #2
ID : 5
Format : UTF-8
Codec ID : S_TEXT/UTF8
Codec ID/Info : UTF-8 Plain Text
Language : English
Default : No
Forced : No
Menu
00:00:00.000 : en:00:00:00.000
00:08:09.697 : en:00:08:09.697
00:13:43.823 : en:00:13:43.823
00:20:53.335 : en:00:20:53.335
00:26:04.187 : en:00:26:04.187
00:38:05.950 : en:00:38:05.950
00:45:13.836 : en:00:45:13.836
00:53:58.568 : en:00:53:58.568
01:04:05.258 : en:01:04:05.258
01:12:36.310 : en:01:12:36.310
01:25:54.941 : en:01:25:54.941
01:36:31.202 : en:01:36:31.202
01:47:45.459 : en:01:47:45.459

Скриншоты

Вы не можете начинать темы
Вы не можете отвечать на сообщения
Вы не можете редактировать свои сообщения
Вы не можете удалять свои сообщения
Вы не можете голосовать в опросах
Вы не можете прикреплять файлы к сообщениям
Вы можете скачивать файлы
!ВНИМАНИЕ!

Сайт не предоставляет электронные версии произведений, а занимается лишь коллекционированием и каталогизацией ссылок, присылаемых и публикуемых на форуме нашими читателями. Если вы являетесь правообладателем какого-либо представленного материала и не желаете, чтобы ссылка на него находилась в нашем каталоге, свяжитесь с нами, и мы незамедлительно удалим ее. Файлы для обмена на трекере предоставлены пользователями сайта, и администрация не несет ответственности за их содержание. Просьба не заливать файлы, защищенные авторскими правами, а также файлы нелегального содержания!

Искали программы, игры, дополнения, музыка mp3, аниме, аудио книги, журналы? Добро пожаловать на свободный торрент трекер B-Tor.Ru, у нас можно скачать бесплатно, без смс и регистрации и прочих ограничений лучшие, отборные сборки программ, игр. Скачать торрентом не составит труда даже не опытному пользователю. Раздачи ежедневно обновляются, только лучшие и качественные раздачи, подробные описания и скриншоты. Огромная коллекция программ для работы со звуком, графикой, дизайном, а так же множество плагинов и инструментов к ним с подробной инструкцией и рекомендациями. Прошивки для навигаторов, карты. Разнообразные игры, для Windows, Linux. В коллекцие есть и старые игры любых жанров, Rpg, Action, Shooter, strategy Множество дополнений, модификаций, сценариев для популярных игр в жанре экш, рпг, гонки, стратегии, логические игры. Множество аддонов и сценариев для Microsoft Flight Simulator Большая коллекция книг, учебников. Если нет возможности купить печатное издание - смело скачивайте цифровую версию книги или, быть может, журнала. Не любите читать - можно загрузить бесплатно аудикнигу. Для веб дизайнеров и программистов так же найдется множество специализированного софта, таких как: редакторы с подсветкой, среды программирования, компоненты, системы управления базами данных, разнообразные скрипты и шаблоны. Не так давно у нас появился материал для автолюбителей и владельцев мото - оригинальные и неоригинальные каталоги запчастей, книги и журналы по ремонту и обслуживанию, видеоуроки, статьи по чип тюнингу, прошивкам. Процедура получения контента элементарная, достаточно просто скачать торрент файл и добавить его в загрузку в вашем торрент клиенте. Если у вас нет специального торрент клиента, вы можете его скачать у нас.