Битва у Красной скалы 2 / Red Cliff II / Chi bi xia: Jue zhan tian xia (Джон Ву / John Woo) [2009, военный, исторический, BDRip] [1080p] (Open Matte) MVO + AVO + sub + original 

Цитировать
Часть 2: [OAR 720p] [Open Matte 720p] [OAR 1080p] [Open Matte 1080p]-Битва у Красной скалы 2 / Red Cliff II / Chi bi xia: Jue zhan tian xia
Год выпуска: 2009
Страна: Китай
Жанр: военный, исторический
Продолжительность: 02:21:18
Перевод 1: Профессиональный (многоголосый закадровый - "Киномания")
Перевод 2: Авторский (одноголосый закадровый - Юрий Сербин)
Русские субтитры: есть
Другие субтитры: английские, французские, румынские, чешские
Режиссер: Джон Ву / John WooВ ролях: Тони Люн Чу Вай /Tony Leung Chiu Wai/, Такеси Канесиро /Takeshi Kaneshiro/, Фэнъи Чжан /Fengyi Zhang/, Чжэнь Чжан /Chen Chang/, Чжао Вэй /Wei Zhao/, Джан Ху /Jun Hu/, Чи-Линг Лин /Chiling Lin/, Сидо Накамура /Shido Nakamura/, Юн Ю /Yong You/, Ба Сэнь Чжа Бу /Ba Sen Zha Bu/Описание: Война между Цао Цао (Фэнъи Чжан) и альянсом южан в самом разгаре - последние выиграли одну битву, но впереди решающее сражение, которое, скорее всего, будет разворачиваться на воде. В войсках Цао Цао свирепствует тиф, но бессердечный узурпатор перенаправляет болезнь в стан врагов, после чего альянс разваливается - Лю Бэй (Юн Ю) уводит своих людей, оставляя Чжоу Юя (Тони Люн Чу Вай) без военной поддержки... 7.4/10 (2,152 votes)
Доп. информация: Open Matte версия (1.78:1, а не оригинальный 2.35:1) - рип с тайваньского диска.
Рип от EbP.-Качество: BDRip
Формат: MKV
Видео кодек: H.264
Аудио кодек: AC3, DTS
Видео: 1916x1078, Open Matte 1.78:1, ~11 Mbps, 24 fps
Аудио 1: Русский DD 5.1 448 kbps 48 kHz (многоголосый)
Аудио 2: Русский DD 5.1 448 kbps 48 kHz (Ю.Сербин)
Аудио 3: Китайский (Mandarin) DTS 5.1 1536 kbps 48 kHz-

MediaInfo

General
Complete name : Red.Cliff.II.2009.Open.Matte.1080p.BluRay.DTS.x264-EbP.2xRus.mkv
Format : Matroska
File size : 13.2 GiB
Duration : 2h 21mn
Overall bit rate : 13.4 Mbps
Encoded date : UTC 2010-01-15 17:32:43
Writing application : mkvmerge v2.9.9 ('Tutu') built on Nov 25 2009 21:13:32
Writing library : libebml v0.7.9 + libmatroska v0.8.1
Video
ID : 1
Format : AVC
Format/Info : Advanced Video Codec
Format profile : High@L4.1
Format settings, CABAC : Yes
Format settings, ReFrames : 4 frames
Muxing mode : Container profile=Unknown@4.1
Codec ID : V_MPEG4/ISO/AVC
Duration : 2h 21mn
Bit rate : 10.7 Mbps
Nominal bit rate : 11.0 Mbps
Width : 1 916 pixels
Height : 1 078 pixels
Display aspect ratio : 16:9
Frame rate : 24.000 fps
Resolution : 24 bits
Colorimetry : 4:2:0
Scan type : Progressive
Bits/(Pixel*Frame) : 0.216
Stream size : 10.6 GiB (80%)
Writing library : x264 core 80 r1376M 3feaec2
Encoding settings : cabac=1 / ref=4 / deblock=1:-3:-3 / analyse=0x3:0x113 / me=umh / subme=10 / psy=1 / psy_rd=0.8:0.1 / mixed_ref=1 / me_range=48 / chroma_me=1 / trellis=2 / 8x8dct=1 / cqm=0 / deadzone=21,11 / fast_pskip=0 / chroma_qp_offset=-3 / threads=12 / sliced_threads=0 / nr=0 / decimate=1 / mbaff=0 / constrained_intra=0 / bframes=5 / b_pyramid=2 / b_adapt=2 / b_bias=0 / direct=3 / wpredb=1 / wpredp=2 / keyint=250 / keyint_min=25 / scenecut=40 / rc=2pass / mbtree=0 / bitrate=11000 / ratetol=1.0 / qcomp=0.60 / qpmin=10 / qpmax=51 / qpstep=4 / cplxblur=20.0 / qblur=0.5 / ip_ratio=1.40 / pb_ratio=1.30 / aq=1:0.70
Audio #1
ID : 2
Format : AC-3
Format/Info : Audio Coding 3
Codec ID : A_AC3
Duration : 2h 21mn
Bit rate mode : Constant
Bit rate : 448 Kbps
Channel(s) : 6 channels
Channel positions : Front: L C R, Surround: L R, LFE
Sampling rate : 48.0 KHz
Stream size : 453 MiB (3%)
Title : Russian (MVO - "Kinomania")
Language : Russian
Audio #2
ID : 3
Format : AC-3
Format/Info : Audio Coding 3
Codec ID : A_AC3
Duration : 2h 21mn
Bit rate mode : Constant
Bit rate : 448 Kbps
Channel(s) : 6 channels
Channel positions : Front: L C R, Surround: L R, LFE
Sampling rate : 48.0 KHz
Stream size : 453 MiB (3%)
Title : Russian (AVO - Yu.Serbin)
Language : Russian
Audio #3
ID : 4
Format : DTS
Format/Info : Digital Theater Systems
Codec ID : A_DTS
Duration : 2h 21mn
Bit rate mode : Constant
Bit rate : 1 510 Kbps
Channel(s) : 6 channels
Channel positions : Front: L C R, Surround: L R, LFE
Sampling rate : 48.0 KHz
Resolution : 24 bits
Stream size : 1.49 GiB (11%)
Title : DTS core 5.1 @ 1.5 Mbps
Language : Chinese
Text #1
ID : 5
Format : UTF-8
Codec ID : S_TEXT/UTF8
Codec ID/Info : UTF-8 Plain Text
Language : Russian
Text #2
ID : 6
Format : UTF-8
Codec ID : S_TEXT/UTF8
Codec ID/Info : UTF-8 Plain Text
Language : Czech
Text #3
ID : 7
Format : UTF-8
Codec ID : S_TEXT/UTF8
Codec ID/Info : UTF-8 Plain Text
Language : English
Text #4
ID : 8
Format : UTF-8
Codec ID : S_TEXT/UTF8
Codec ID/Info : UTF-8 Plain Text
Language : French
Text #5
ID : 9
Format : UTF-8
Codec ID : S_TEXT/UTF8
Codec ID/Info : UTF-8 Plain Text
Language : Hungarian
Text #6
ID : 10
Format : UTF-8
Codec ID : S_TEXT/UTF8
Codec ID/Info : UTF-8 Plain Text
Language : Portuguese
Text #7
ID : 11
Format : UTF-8
Codec ID : S_TEXT/UTF8
Codec ID/Info : UTF-8 Plain Text
Language : Romanian
Text #8
ID : 12
Format : UTF-8
Codec ID : S_TEXT/UTF8
Codec ID/Info : UTF-8 Plain Text
Language : Spanish
Menu
00:00:00.000 : :00:00:00.000
00:02:36.458 : :00:02:36.458
00:12:00.375 : :00:12:00.375
00:22:31.375 : :00:22:31.375
00:31:59.708 : :00:31:59.708
00:41:41.292 : :00:41:41.292
00:53:17.083 : :00:53:17.083
01:02:00.542 : :01:02:00.542
01:14:48.708 : :01:14:48.708
01:23:08.167 : :01:23:08.167
01:32:21.500 : :01:32:21.500
01:42:05.500 : :01:42:05.500
01:52:16.250 : :01:52:16.250
02:03:04.917 : :02:03:04.917
02:16:20.875 : :02:16:20.875
Внимание! Торрент-файл перезалит без изменения содержимого раздачи в связи с просьбой администрации снять флаг "Приватная раздача".
Скачавшим ранее просьба перекачать торрент-файл, перехешировать содержимое и присоединиться к раздаче.
Вы не можете начинать темы
Вы не можете отвечать на сообщения
Вы не можете редактировать свои сообщения
Вы не можете удалять свои сообщения
Вы не можете голосовать в опросах
Вы не можете прикреплять файлы к сообщениям
Вы можете скачивать файлы
!ВНИМАНИЕ!

Сайт не предоставляет электронные версии произведений, а занимается лишь коллекционированием и каталогизацией ссылок, присылаемых и публикуемых на форуме нашими читателями. Если вы являетесь правообладателем какого-либо представленного материала и не желаете, чтобы ссылка на него находилась в нашем каталоге, свяжитесь с нами, и мы незамедлительно удалим ее. Файлы для обмена на трекере предоставлены пользователями сайта, и администрация не несет ответственности за их содержание. Просьба не заливать файлы, защищенные авторскими правами, а также файлы нелегального содержания!

Искали программы, игры, дополнения, музыка mp3, аниме, аудио книги, журналы? Добро пожаловать на свободный торрент трекер B-Tor.Ru, у нас можно скачать бесплатно, без смс и регистрации и прочих ограничений лучшие, отборные сборки программ, игр. Скачать торрентом не составит труда даже не опытному пользователю. Раздачи ежедневно обновляются, только лучшие и качественные раздачи, подробные описания и скриншоты. Огромная коллекция программ для работы со звуком, графикой, дизайном, а так же множество плагинов и инструментов к ним с подробной инструкцией и рекомендациями. Прошивки для навигаторов, карты. Разнообразные игры, для Windows, Linux. В коллекцие есть и старые игры любых жанров, Rpg, Action, Shooter, strategy Множество дополнений, модификаций, сценариев для популярных игр в жанре экш, рпг, гонки, стратегии, логические игры. Множество аддонов и сценариев для Microsoft Flight Simulator Большая коллекция книг, учебников. Если нет возможности купить печатное издание - смело скачивайте цифровую версию книги или, быть может, журнала. Не любите читать - можно загрузить бесплатно аудикнигу. Для веб дизайнеров и программистов так же найдется множество специализированного софта, таких как: редакторы с подсветкой, среды программирования, компоненты, системы управления базами данных, разнообразные скрипты и шаблоны. Не так давно у нас появился материал для автолюбителей и владельцев мото - оригинальные и неоригинальные каталоги запчастей, книги и журналы по ремонту и обслуживанию, видеоуроки, статьи по чип тюнингу, прошивкам. Процедура получения контента элементарная, достаточно просто скачать торрент файл и добавить его в загрузку в вашем торрент клиенте. Если у вас нет специального торрент клиента, вы можете его скачать у нас.