Железнодорожные тигры / Tie dao fei hu / Railroad Tigers (Дин Шэн / Ding Sheng) [2016, Китай, боевик, комедия, военный, BDRip 1080p] (2xMVO + VO) + Original Chi + Sub Rus, Eng 

Цитировать
--Железнодорожные тигры / Tie dao fei hu / Railroad Tigers-- Страна: Китай
Студия: Sparkle Roll Media, Shanghai Film Group, Beijing Going Zoom Media See
Жанр: боевик, комедия, военный
Год выпуска: 2016
Продолжительность: 02:04:15-Перевод:
Профессиональный (многоголосый закадровый) Jaskier
Любительский (многоголосый закадровый) Paradox&Omskbird
Любительский (многоголосый закадровый) Chesterfield
Субтитры: русские, английские
Оригинальная аудиодорожка: китайская-Режиссер: Дин Шэн / Ding Sheng-В ролях: Джеки Чан, Цзытао Хуан, Джэйси Чан, Кай Ван, Хироюки Икеучи, Пин Сан, Алан ЭнДжи, Фань Сюй, Даррен Ван, Кодзи Яно, Ланьсинь Чжан, Ишан Чжан, Вэй На, Юньвэй Хэ, Асано Нагахидэ, Натас Асока, Хайлун Лю и др...-Описание: В декабре 1941 года Япония расширяет оккупацию соседних стран в Юго-Восточной Азии. Железная дорога от Тяньцзинь Нанкин в Восточном Китае стала ключевым маршрутом для военных перевозок под усиленной охраной японских солдат. Работник железной дороги Ма Юань организовывает команду борцов за свободу. Используя свои глубокие знания железнодорожных сетей, он со своими людьми устраивает засады на японских солдат и ворует их припасы, чтобы накормить голодающих соотечественников.
Местные называют своих героев «железнодорожными тиграми». И когда борцы за свободу оказываются на неправильной стороне путей при отправке подкрепления японцам в провинцию Шаньдун, Ма Юань решается на опасный поступок — взорвать тщательно охраняемый железнодорожный мост.- -Тип релиза: BDRip 1080p
Контейнер: MKV
Аудио кодек: DTS, AC-3
Видео: MPEG4/AVC, 1920x804 (2.40:1), ~12.0 Mbps, 24.000 fps, 0.323 bit/pixel
Аудио # 1: RUS / DTS, 48 kHz, 6 ch, 1509 kbps | Многоголосый закадровый - Jaskier
Аудио # 2: RUS / DTS, 48 kHz, 6 ch, 1509 kbps | Многоголосый закадровый - Paradox&Omskbird records
Аудио # 3: RUS / AC-3, 48 kHz, 2 ch, 192 kbps | Любительский одноголосый - Chesterfield
Аудио # 4: ENG / DTS, 48 kHz, 6 ch, 1509 kbps
Аудио # 5: CHI / DTS, 48 kHz, 6 ch, 1509 kbps
Формат субтитров: softsub (SRT)

Подготовка релиза

Релиз подготовил: Grandfather61
Дорожки Jaskier и Chesterfield - взяты с раздачи http://rutracker.org/forum/viewtopic.php?t=5422539
Русские субтитры: OmskBird

MediaInfo

General
Unique ID : 196038488706292834867909915180799751537 (0x937BA3BA8B491AE0BE15C561D839F571)
Complete name : E:\Railroad.Tigers.2016.BDRip.1080p\Railroad.Tigers.2016.1080p.BDRip.3xRus.Eng.Chi.mkv
Format : Matroska
Format version : Version 4 / Version 2
File size : 15.8 GiB
Duration : 2h 4mn
Overall bit rate : 18.2 Mbps
Encoded date : UTC 2017-08-14 12:49:49
Writing application : mkvmerge v14.0.0 ('Flow') 64bit
Writing library : libebml v1.3.4 + libmatroska v1.4.5
Video
ID : 1
Format : AVC
Format/Info : Advanced Video Codec
Format profile : High@L4.1
Format settings, CABAC : Yes
Format settings, ReFrames : 4 frames
Codec ID : V_MPEG4/ISO/AVC
Duration : 2h 4mn
Bit rate : 12.0 Mbps
Width : 1 920 pixels
Height : 804 pixels
Display aspect ratio : 2.40:1
Frame rate mode : Constant
Frame rate : 24.000 fps
Color space : YUV
Chroma subsampling : 4:2:0
Bit depth : 8 bits
Scan type : Progressive
Bits/(Pixel*Frame) : 0.323
Stream size : 10.4 GiB (66%)
Writing library : x264 core 149 r2771+45 509cceb 7mod [8-bit@all X86_64]
Encoding settings : cabac=1 / ref=4 / deblock=1:-3:-3 / analyse=0x3:0x113 / me=umh / subme=11 / psy=1 / fade_compensate=0.00 / psy_rd=1.00:0.05 / mixed_ref=1 / me_range=48 / chroma_me=1 / trellis=2 / 8x8dct=1 / cqm=0 / deadzone=21,11 / fast_pskip=0 / chroma_qp_offset=-2 / threads=12 / lookahead_threads=2 / sliced_threads=0 / nr=0 / decimate=1 / interlaced=0 / bluray_compat=0 / constrained_intra=0 / fgo=0 / bframes=8 / b_pyramid=2 / b_adapt=2 / b_bias=0 / direct=3 / weightb=1 / open_gop=0 / weightp=2 / keyint=250 / keyint_min=24 / scenecut=40 / intra_refresh=0 / rc_lookahead=40 / rc=crf / mbtree=0 / crf=18.0000 / qcomp=0.60 / qpmin=0:0:0 / qpmax=69:69:69 / qpstep=4 / vbv_maxrate=35000 / vbv_bufsize=35000 / crf_max=0.0 / nal_hrd=none / filler=0 / ip_ratio=1.40 / pb_ratio=1.30 / aq=3:1.00 / aq-sensitivity=10.00 / aq-factor=1.00:1.00:1.00 / aq2=0 / aq3=0
Language : Chinese
Default : Yes
Forced : No
Color range : Limited
Matrix coefficients : BT.709
Audio #1
ID : 2
Format : DTS
Format/Info : Digital Theater Systems
Mode : 16
Format settings, Endianness : Big
Codec ID : A_DTS
Duration : 2h 4mn
Bit rate mode : Constant
Bit rate : 1 536 Kbps
Channel(s) : 6 channels
Channel positions : Front: L C R, Side: L R, LFE
Sampling rate : 48.0 KHz
Frame rate : 93.750 fps (512 spf)
Bit depth : 24 bits
Compression mode : Lossy
Stream size : 1.33 GiB (8%)
Title : Jaskier
Language : Russian
Default : Yes
Forced : No
Audio #2
ID : 3
Format : DTS
Format/Info : Digital Theater Systems
Mode : 16
Format settings, Endianness : Big
Codec ID : A_DTS
Duration : 2h 4mn
Bit rate mode : Constant
Bit rate : 1 509 Kbps
Channel(s) : 6 channels
Channel positions : Front: L C R, Side: L R, LFE
Sampling rate : 48.0 KHz
Frame rate : 93.750 fps (512 spf)
Bit depth : 24 bits
Compression mode : Lossy
Stream size : 1.31 GiB (8%)
Title : Paradox&Omskbird
Language : Russian
Default : No
Forced : No
Audio #3
ID : 4
Format : AC-3
Format/Info : Audio Coding 3
Mode extension : CM (complete main)
Format settings, Endianness : Big
Codec ID : A_AC3
Duration : 2h 4mn
Bit rate mode : Constant
Bit rate : 192 Kbps
Channel(s) : 2 channels
Channel positions : Front: L R
Sampling rate : 48.0 KHz
Frame rate : 31.250 fps (1536 spf)
Compression mode : Lossy
Stream size : 171 MiB (1%)
Title : Chesterfield
Language : Russian
Default : No
Forced : No
Audio #4
ID : 5
Format : DTS
Format/Info : Digital Theater Systems
Mode : 16
Format settings, Endianness : Big
Codec ID : A_DTS
Duration : 2h 4mn
Bit rate mode : Constant
Bit rate : 1 509 Kbps
Channel(s) : 6 channels
Channel positions : Front: L C R, Side: L R, LFE
Sampling rate : 48.0 KHz
Frame rate : 93.750 fps (512 spf)
Bit depth : 24 bits
Compression mode : Lossy
Stream size : 1.31 GiB (8%)
Title : end
Language : English
Default : No
Forced : No
Audio #5
ID : 6
Format : DTS
Format/Info : Digital Theater Systems
Mode : 16
Format settings, Endianness : Big
Codec ID : A_DTS
Duration : 2h 4mn
Bit rate mode : Constant
Bit rate : 1 509 Kbps
Channel(s) : 6 channels
Channel positions : Front: L C R, Side: L R, LFE
Sampling rate : 48.0 KHz
Frame rate : 93.750 fps (512 spf)
Bit depth : 24 bits
Compression mode : Lossy
Stream size : 1.31 GiB (8%)
Title : Chi
Language : Chinese
Default : No
Forced : No
Text #1
ID : 7
Format : UTF-8
Codec ID : S_TEXT/UTF8
Codec ID/Info : UTF-8 Plain Text
Duration : 2h 2mn
Bit rate : 53 bps
Count of elements : 1317
Stream size : 47.7 KiB (0%)
Title : OmskBird
Language : Russian
Default : No
Forced : No
Text #2
ID : 8
Format : UTF-8
Codec ID : S_TEXT/UTF8
Codec ID/Info : UTF-8 Plain Text
Duration : 2h 2mn
Bit rate : 34 bps
Count of elements : 1254
Stream size : 30.8 KiB (0%)
Title : eng
Language : English
Default : No
Forced : No
Menu
00:00:00.000 : en:00:00:00.000
00:11:37.083 : en:00:11:37.083
00:20:22.792 : en:00:20:22.792
00:31:07.167 : en:00:31:07.167
00:41:32.583 : en:00:41:32.583
00:54:51.583 : en:00:54:51.583
01:02:03.917 : en:01:02:03.917
01:14:17.458 : en:01:14:17.458
01:23:37.167 : en:01:23:37.167
01:31:45.125 : en:01:31:45.125
01:42:10.083 : en:01:42:10.083
01:51:37.042 : en:01:51:37.042

Скриншоты

Вы не можете начинать темы
Вы не можете отвечать на сообщения
Вы не можете редактировать свои сообщения
Вы не можете удалять свои сообщения
Вы не можете голосовать в опросах
Вы не можете прикреплять файлы к сообщениям
Вы можете скачивать файлы
!ВНИМАНИЕ!

Сайт не предоставляет электронные версии произведений, а занимается лишь коллекционированием и каталогизацией ссылок, присылаемых и публикуемых на форуме нашими читателями. Если вы являетесь правообладателем какого-либо представленного материала и не желаете, чтобы ссылка на него находилась в нашем каталоге, свяжитесь с нами, и мы незамедлительно удалим ее. Файлы для обмена на трекере предоставлены пользователями сайта, и администрация не несет ответственности за их содержание. Просьба не заливать файлы, защищенные авторскими правами, а также файлы нелегального содержания!

Искали программы, игры, дополнения, музыка mp3, аниме, аудио книги, журналы? Добро пожаловать на свободный торрент трекер B-Tor.Ru, у нас можно скачать бесплатно, без смс и регистрации и прочих ограничений лучшие, отборные сборки программ, игр. Скачать торрентом не составит труда даже не опытному пользователю. Раздачи ежедневно обновляются, только лучшие и качественные раздачи, подробные описания и скриншоты. Огромная коллекция программ для работы со звуком, графикой, дизайном, а так же множество плагинов и инструментов к ним с подробной инструкцией и рекомендациями. Прошивки для навигаторов, карты. Разнообразные игры, для Windows, Linux. В коллекцие есть и старые игры любых жанров, Rpg, Action, Shooter, strategy Множество дополнений, модификаций, сценариев для популярных игр в жанре экш, рпг, гонки, стратегии, логические игры. Множество аддонов и сценариев для Microsoft Flight Simulator Большая коллекция книг, учебников. Если нет возможности купить печатное издание - смело скачивайте цифровую версию книги или, быть может, журнала. Не любите читать - можно загрузить бесплатно аудикнигу. Для веб дизайнеров и программистов так же найдется множество специализированного софта, таких как: редакторы с подсветкой, среды программирования, компоненты, системы управления базами данных, разнообразные скрипты и шаблоны. Не так давно у нас появился материал для автолюбителей и владельцев мото - оригинальные и неоригинальные каталоги запчастей, книги и журналы по ремонту и обслуживанию, видеоуроки, статьи по чип тюнингу, прошивкам. Процедура получения контента элементарная, достаточно просто скачать торрент файл и добавить его в загрузку в вашем торрент клиенте. Если у вас нет специального торрент клиента, вы можете его скачать у нас.