Кадетство (3 сезон: 1-70 серии из 70 ) /Валентин Козловский/ 2007 / РУ / 6 x DVD9 

Цитировать
Кадетство (3 сезон: 1-70 серии из 70) / 2007 / РУ / 6 x DVD-9
Год выпуска: 2007
Производство: СТС Киноконстанта
Жанр: комедия , драма , симейный
Продолжительность: 3150
Субтитры: нет
Режиссёр: Валентин Козловский
В ролях: Александр Головин, Павел Бессонов, Аристарх Венес, Борис Корчевников, Артем Терехов, Артур Сопельник, Кирилл Емельянов, Вадим Андреев, Валерий Баринов, Елена Захарова, Алина Колкер, Виталий Кудрявцев, Ирина Медведева, Сергей Плотников (II), Александр Пороховщиков, Дарья Соболева, Линда Табагари, Юлия Учиткина, Владимир Балдов, Сергей Жолобов, Владимир Стеклов, Виталий Абдулов, Виктория Алашеева, Егор Баринов, Владимир Белоусов (II), Светлана Варецкая, Фёдор Добронравов, Андрей Иванов (VI), Вероника Изотова, Элеонора Ильченко, Владимир Лаптев, Галина Лебедева, Ольга Лукьяненко, Елена Мольченко (Фатюшина), Александр Никулин, Владимир Павленко, Татьяна Пискарёва, Борис Полунин
Описание: Многосерийный фильм «Кадетство» – о жизни ребят, у которых есть благородная цель, высокая мечта. Ведь не умерли такие понятия как благородство, настоящая дружба, патриотизм? Остается живым во все времена такое призвание как служение Родине.
Это фильм о взрослении, о первой любви, о прощании с детством... О взаимоотношениях ребят со взрослым, реальным и порой жестоким миром, в котором им предстоит жить.
Сценарий основан прежде всего на личных воспоминаниях генерального продюсера фильма, автора идеи «Кадетства», выпускника Тверского Суворовского Училища, а ныне руководителя отдела производства сериалов на СТС – Вячеслава Муругова. У него как у настоящего суворовца довольно необычная судьба: он оставил военную карьеру в расцвете лет и стал играть в КВН. Другой КВНщик – Леонид Купридо, также знающий армейский устав не понаслышке, совместно с Муруговым и группой сценаристов, стал писать смешную и трогательную историю о жизни и приключениях суворовцев. Вот и соединились вместе юмор, военная тематика и серьезное отношение к жизни, – появился новый жанр, объединяющий драму и комедию – драмеди. То есть самый настоящий «жизненный» жанр..
Все раздачи сериала:
Сэмпл: http://www.multiupload.nl/PXLMW72MA4
Качество: DVD9
Формат: DVD-Video
Видео кодек: MPEG2
Аудио кодек: AC3
Видео: PAL 4:3 (720x576) VBR
Аудио: Русский (Dolby AC3, 2 ch)

ОБЛОЖКИ


MediaInfo

Общее
Полное имя : F:\МОИ ВИДЕО ЗАПИСИ DViX, AVi, MPG4\ВИДЕО В ФОРМАТЕ VOB\Kadetstvo.3.sezon.70.serij.iz.70.2007.6xDVD9\Disc 5\VIDEO_TS\VIDEO_TS.BUP
Формат : DVD Video
Профиль формата : Menu
Размер файла : 26,0 Кбайт
Режим общего битрейта : Переменный
Видео
Идентификатор : 224 (0xE0)
Формат : MPEG Video
Версия формата : Version 2
Вид битрейта : Переменный
Ширина : 720 пикселей
Высота : 576 пикселей
Соотношение сторон : 4:3
Частота кадров : 25,000 кадров/сек
Стандарт вещания : PAL
Метод сжатия : С потерями
Текст
Формат : RLE
Формат/Информация : Run-length encoding
Битовая глубина : 2 бит
Общее
Полное имя : F:\МОИ ВИДЕО ЗАПИСИ DViX, AVi, MPG4\ВИДЕО В ФОРМАТЕ VOB\Kadetstvo.3.sezon.70.serij.iz.70.2007.6xDVD9\Disc 5\VIDEO_TS\VIDEO_TS.IFO
Формат : DVD Video
Профиль формата : Menu
Размер файла : 26,0 Кбайт
Режим общего битрейта : Переменный
Видео
Идентификатор : 224 (0xE0)
Формат : MPEG Video
Версия формата : Version 2
Вид битрейта : Переменный
Ширина : 720 пикселей
Высота : 576 пикселей
Соотношение сторон : 4:3
Частота кадров : 25,000 кадров/сек
Стандарт вещания : PAL
Метод сжатия : С потерями
Текст
Формат : RLE
Формат/Информация : Run-length encoding
Битовая глубина : 2 бит
Общее
Полное имя : F:\МОИ ВИДЕО ЗАПИСИ DViX, AVi, MPG4\ВИДЕО В ФОРМАТЕ VOB\Kadetstvo.3.sezon.70.serij.iz.70.2007.6xDVD9\Disc 5\VIDEO_TS\VIDEO_TS.VOB
Формат : MPEG-PS
Размер файла : 154 Кбайт
Продолжительность : 520 мс.
Общий поток : 2426 Кбит/сек
Видео
Идентификатор : 224 (0xE0)
Формат : MPEG Video
Версия формата : Version 2
Профиль формата : Main@Main
Параметр BVOP формата : Да
Параметр матрицы формата : Выборочная
Продолжительность : 520 мс.
Максимальный битрейт : 2000 Кбит/сек
Ширина : 720 пикселей
Высота : 576 пикселей
Соотношение сторон : 4:3
Частота кадров : 25,000 кадров/сек
Стандарт вещания : PAL
Цветовое пространство : YUV
Субдискретизация насыщенности : 4:2:0
Битовая глубина : 8 бит
Тип развёртки : Чересстрочная
Порядок развёртки : Верхнее поле первое
Метод сжатия : С потерями
Текст
Идентификатор : 189 (0xBD)-32 (0x20)
Формат : RLE
Формат/Информация : Run-length encoding
Режим смешивания : DVD-Video
Задержка видео : -80 мс.
Меню
Общее
Полное имя : F:\МОИ ВИДЕО ЗАПИСИ DViX, AVi, MPG4\ВИДЕО В ФОРМАТЕ VOB\Kadetstvo.3.sezon.70.serij.iz.70.2007.6xDVD9\Disc 5\VIDEO_TS\VTS_01_0.BUP
Формат : DVD Video
Профиль формата : Program
Размер файла : 30,0 Кбайт
Продолжительность : 5 с. 800 мс.
Режим общего битрейта : Переменный
Общий поток : 42,4 Кбит/сек
Видео
Идентификатор : 224 (0xE0)
Формат : MPEG Video
Версия формата : Version 2
Продолжительность : 5 с. 800 мс.
Вид битрейта : Переменный
Ширина : 720 пикселей
Высота : 576 пикселей
Соотношение сторон : 4:3
Частота кадров : 25,000 кадров/сек
Стандарт вещания : PAL
Метод сжатия : С потерями
Аудио #1
Формат : AC-3
Формат/Информация : Audio Coding 3
Продолжительность : 5 с. 800 мс.
Каналы : 6 каналов
Частота : 48,0 КГц
Метод сжатия : С потерями
Язык : English
Аудио #2
Формат : AC-3
Формат/Информация : Audio Coding 3
Продолжительность : 5 с. 800 мс.
Каналы : 6 каналов
Частота : 48,0 КГц
Метод сжатия : С потерями
Язык : English
Аудио #3
Формат : AC-3
Формат/Информация : Audio Coding 3
Продолжительность : 5 с. 800 мс.
Каналы : 6 каналов
Частота : 48,0 КГц
Метод сжатия : С потерями
Язык : English
Аудио #4
Формат : AC-3
Формат/Информация : Audio Coding 3
Продолжительность : 5 с. 800 мс.
Каналы : 6 каналов
Частота : 48,0 КГц
Метод сжатия : С потерями
Язык : English
Аудио #5
Формат : AC-3
Формат/Информация : Audio Coding 3
Продолжительность : 5 с. 800 мс.
Каналы : 6 каналов
Частота : 48,0 КГц
Метод сжатия : С потерями
Язык : English
Аудио #6
Формат : AC-3
Формат/Информация : Audio Coding 3
Продолжительность : 5 с. 800 мс.
Каналы : 6 каналов
Частота : 48,0 КГц
Метод сжатия : С потерями
Язык : English
Аудио #7
Формат : AC-3
Формат/Информация : Audio Coding 3
Продолжительность : 5 с. 800 мс.
Каналы : 6 каналов
Частота : 48,0 КГц
Метод сжатия : С потерями
Язык : English
Аудио #8
Формат : AC-3
Формат/Информация : Audio Coding 3
Продолжительность : 5 с. 800 мс.
Каналы : 6 каналов
Частота : 48,0 КГц
Метод сжатия : С потерями
Язык : English
Текст #1
Формат : RLE
Формат/Информация : Run-length encoding
Битовая глубина : 2 бит
Текст #2
Формат : RLE
Формат/Информация : Run-length encoding
Битовая глубина : 2 бит
Текст #3
Формат : RLE
Формат/Информация : Run-length encoding
Битовая глубина : 2 бит
Текст #4
Формат : RLE
Формат/Информация : Run-length encoding
Битовая глубина : 2 бит
Текст #5
Формат : RLE
Формат/Информация : Run-length encoding
Битовая глубина : 2 бит
Текст #6
Формат : RLE
Формат/Информация : Run-length encoding
Битовая глубина : 2 бит
Текст #7
Формат : RLE
Формат/Информация : Run-length encoding
Битовая глубина : 2 бит
Текст #8
Формат : RLE
Формат/Информация : Run-length encoding
Битовая глубина : 2 бит
Текст #9
Формат : RLE
Формат/Информация : Run-length encoding
Битовая глубина : 2 бит
Текст #10
Формат : RLE
Формат/Информация : Run-length encoding
Битовая глубина : 2 бит
Текст #11
Формат : RLE
Формат/Информация : Run-length encoding
Битовая глубина : 2 бит
Текст #12
Формат : RLE
Формат/Информация : Run-length encoding
Битовая глубина : 2 бит
Текст #13
Формат : RLE
Формат/Информация : Run-length encoding
Битовая глубина : 2 бит
Текст #14
Формат : RLE
Формат/Информация : Run-length encoding
Битовая глубина : 2 бит
Текст #15
Формат : RLE
Формат/Информация : Run-length encoding
Битовая глубина : 2 бит
Текст #16
Формат : RLE
Формат/Информация : Run-length encoding
Битовая глубина : 2 бит
Текст #17
Формат : RLE
Формат/Информация : Run-length encoding
Битовая глубина : 2 бит
Текст #18
Формат : RLE
Формат/Информация : Run-length encoding
Битовая глубина : 2 бит
Текст #19
Формат : RLE
Формат/Информация : Run-length encoding
Битовая глубина : 2 бит
Текст #20
Формат : RLE
Формат/Информация : Run-length encoding
Битовая глубина : 2 бит
Текст #21
Формат : RLE
Формат/Информация : Run-length encoding
Битовая глубина : 2 бит
Текст #22
Формат : RLE
Формат/Информация : Run-length encoding
Битовая глубина : 2 бит
Текст #23
Формат : RLE
Формат/Информация : Run-length encoding
Битовая глубина : 2 бит
Текст #24
Формат : RLE
Формат/Информация : Run-length encoding
Битовая глубина : 2 бит
Текст #25
Формат : RLE
Формат/Информация : Run-length encoding
Битовая глубина : 2 бит
Текст #26
Формат : RLE
Формат/Информация : Run-length encoding
Битовая глубина : 2 бит
Текст #27
Формат : RLE
Формат/Информация : Run-length encoding
Битовая глубина : 2 бит
Текст #28
Формат : RLE
Формат/Информация : Run-length encoding
Битовая глубина : 2 бит
Текст #29
Формат : RLE
Формат/Информация : Run-length encoding
Битовая глубина : 2 бит
Текст #30
Формат : RLE
Формат/Информация : Run-length encoding
Битовая глубина : 2 бит
Текст #31
Формат : RLE
Формат/Информация : Run-length encoding
Битовая глубина : 2 бит
Текст #32
Формат : RLE
Формат/Информация : Run-length encoding
Битовая глубина : 2 бит
Меню
Продолжительность : 5 с. 800 мс.
00:00:00.000 : Chapter 1
Общее
Полное имя : F:\МОИ ВИДЕО ЗАПИСИ DViX, AVi, MPG4\ВИДЕО В ФОРМАТЕ VOB\Kadetstvo.3.sezon.70.serij.iz.70.2007.6xDVD9\Disc 5\VIDEO_TS\VTS_01_0.IFO
Формат : DVD Video
Профиль формата : Program
Размер файла : 30,0 Кбайт
Продолжительность : 5 с. 800 мс.
Режим общего битрейта : Переменный
Общий поток : 42,4 Кбит/сек
Видео
Идентификатор : 224 (0xE0)
Формат : MPEG Video
Версия формата : Version 2
Продолжительность : 5 с. 800 мс.
Вид битрейта : Переменный
Ширина : 720 пикселей
Высота : 576 пикселей
Соотношение сторон : 4:3
Частота кадров : 25,000 кадров/сек
Стандарт вещания : PAL
Метод сжатия : С потерями
Аудио #1
Формат : AC-3
Формат/Информация : Audio Coding 3
Продолжительность : 5 с. 800 мс.
Каналы : 6 каналов
Частота : 48,0 КГц
Метод сжатия : С потерями
Язык : English
Аудио #2
Формат : AC-3
Формат/Информация : Audio Coding 3
Продолжительность : 5 с. 800 мс.
Каналы : 6 каналов
Частота : 48,0 КГц
Метод сжатия : С потерями
Язык : English
Аудио #3
Формат : AC-3
Формат/Информация : Audio Coding 3
Продолжительность : 5 с. 800 мс.
Каналы : 6 каналов
Частота : 48,0 КГц
Метод сжатия : С потерями
Язык : English
Аудио #4
Формат : AC-3
Формат/Информация : Audio Coding 3
Продолжительность : 5 с. 800 мс.
Каналы : 6 каналов
Частота : 48,0 КГц
Метод сжатия : С потерями
Язык : English
Аудио #5
Формат : AC-3
Формат/Информация : Audio Coding 3
Продолжительность : 5 с. 800 мс.
Каналы : 6 каналов
Частота : 48,0 КГц
Метод сжатия : С потерями
Язык : English
Аудио #6
Формат : AC-3
Формат/Информация : Audio Coding 3
Продолжительность : 5 с. 800 мс.
Каналы : 6 каналов
Частота : 48,0 КГц
Метод сжатия : С потерями
Язык : English
Аудио #7
Формат : AC-3
Формат/Информация : Audio Coding 3
Продолжительность : 5 с. 800 мс.
Каналы : 6 каналов
Частота : 48,0 КГц
Метод сжатия : С потерями
Язык : English
Аудио #8
Формат : AC-3
Формат/Информация : Audio Coding 3
Продолжительность : 5 с. 800 мс.
Каналы : 6 каналов
Частота : 48,0 КГц
Метод сжатия : С потерями
Язык : English
Текст #1
Формат : RLE
Формат/Информация : Run-length encoding
Битовая глубина : 2 бит
Текст #2
Формат : RLE
Формат/Информация : Run-length encoding
Битовая глубина : 2 бит
Текст #3
Формат : RLE
Формат/Информация : Run-length encoding
Битовая глубина : 2 бит
Текст #4
Формат : RLE
Формат/Информация : Run-length encoding
Битовая глубина : 2 бит
Текст #5
Формат : RLE
Формат/Информация : Run-length encoding
Битовая глубина : 2 бит
Текст #6
Формат : RLE
Формат/Информация : Run-length encoding
Битовая глубина : 2 бит
Текст #7
Формат : RLE
Формат/Информация : Run-length encoding
Битовая глубина : 2 бит
Текст #8
Формат : RLE
Формат/Информация : Run-length encoding
Битовая глубина : 2 бит
Текст #9
Формат : RLE
Формат/Информация : Run-length encoding
Битовая глубина : 2 бит
Текст #10
Формат : RLE
Формат/Информация : Run-length encoding
Битовая глубина : 2 бит
Текст #11
Формат : RLE
Формат/Информация : Run-length encoding
Битовая глубина : 2 бит
Текст #12
Формат : RLE
Формат/Информация : Run-length encoding
Битовая глубина : 2 бит
Текст #13
Формат : RLE
Формат/Информация : Run-length encoding
Битовая глубина : 2 бит
Текст #14
Формат : RLE
Формат/Информация : Run-length encoding
Битовая глубина : 2 бит
Текст #15
Формат : RLE
Формат/Информация : Run-length encoding
Битовая глубина : 2 бит
Текст #16
Формат : RLE
Формат/Информация : Run-length encoding
Битовая глубина : 2 бит
Текст #17
Формат : RLE
Формат/Информация : Run-length encoding
Битовая глубина : 2 бит
Текст #18
Формат : RLE
Формат/Информация : Run-length encoding
Битовая глубина : 2 бит
Текст #19
Формат : RLE
Формат/Информация : Run-length encoding
Битовая глубина : 2 бит
Текст #20
Формат : RLE
Формат/Информация : Run-length encoding
Битовая глубина : 2 бит
Текст #21
Формат : RLE
Формат/Информация : Run-length encoding
Битовая глубина : 2 бит
Текст #22
Формат : RLE
Формат/Информация : Run-length encoding
Битовая глубина : 2 бит
Текст #23
Формат : RLE
Формат/Информация : Run-length encoding
Битовая глубина : 2 бит
Текст #24
Формат : RLE
Формат/Информация : Run-length encoding
Битовая глубина : 2 бит
Текст #25
Формат : RLE
Формат/Информация : Run-length encoding
Битовая глубина : 2 бит
Текст #26
Формат : RLE
Формат/Информация : Run-length encoding
Битовая глубина : 2 бит
Текст #27
Формат : RLE
Формат/Информация : Run-length encoding
Битовая глубина : 2 бит
Текст #28
Формат : RLE
Формат/Информация : Run-length encoding
Битовая глубина : 2 бит
Текст #29
Формат : RLE
Формат/Информация : Run-length encoding
Битовая глубина : 2 бит
Текст #30
Формат : RLE
Формат/Информация : Run-length encoding
Битовая глубина : 2 бит
Текст #31
Формат : RLE
Формат/Информация : Run-length encoding
Битовая глубина : 2 бит
Текст #32
Формат : RLE
Формат/Информация : Run-length encoding
Битовая глубина : 2 бит
Меню
Продолжительность : 5 с. 800 мс.
00:00:00.000 : Chapter 1
Общее
Полное имя : F:\МОИ ВИДЕО ЗАПИСИ DViX, AVi, MPG4\ВИДЕО В ФОРМАТЕ VOB\Kadetstvo.3.sezon.70.serij.iz.70.2007.6xDVD9\Disc 5\VIDEO_TS\VTS_01_0.VOB
Формат : MPEG-PS
Размер файла : 204 Мбайт
Продолжительность : 24 с.
Режим общего битрейта : Переменный
Общий поток : 71,3 Мбит/сек
Видео
Идентификатор : 224 (0xE0)
Формат : MPEG Video
Версия формата : Version 2
Профиль формата : Main@Main
Параметр BVOP формата : Да
Параметр матрицы формата : По умолчанию
Параметр GOP формата : M=3, N=12
Продолжительность : 24 с.
Вид битрейта : Переменный
Битрейт : 69,7 Мбит/сек
Ширина : 720 пикселей
Высота : 576 пикселей
Соотношение сторон : 4:3
Частота кадров : 25,000 кадров/сек
Стандарт вещания : PAL
Цветовое пространство : YUV
Субдискретизация насыщенности : 4:2:0
Битовая глубина : 8 бит
Тип развёртки : Прогрессивная
Метод сжатия : С потерями
Бит/(Пиксели*Кадры) : 6.718
Размер потока : 199 Мбайт (98%)
Основные цвета : BT.601 PAL
Характеристики трансфера : BT.470 System B, BT.470 System G
Коэффициенты матрицы : BT.601
Аудио
Идентификатор : 189 (0xBD)-128 (0x80)
Формат : AC-3
Формат/Информация : Audio Coding 3
Расширение режима : CM (complete main)
Параметр Endianness формата : Big
Режим смешивания : DVD-Video
Продолжительность : 23 с.
Вид битрейта : Постоянный
Битрейт : 192 Кбит/сек
Каналы : 2 канала
Расположение каналов : Front: L R
Частота : 48,0 КГц
Битовая глубина : 16 бит
Метод сжатия : С потерями
Размер потока : 562 Кбайт (0%)
Текст
Идентификатор : 189 (0xBD)-32 (0x20)
Формат : RLE
Формат/Информация : Run-length encoding
Режим смешивания : DVD-Video
Меню
Общее
Полное имя : F:\МОИ ВИДЕО ЗАПИСИ DViX, AVi, MPG4\ВИДЕО В ФОРМАТЕ VOB\Kadetstvo.3.sezon.70.serij.iz.70.2007.6xDVD9\Disc 5\VIDEO_TS\VTS_01_1.VOB
Формат : MPEG-PS
Размер файла : 2,34 Мбайт
Продолжительность : 5 с. 800 мс.
Режим общего битрейта : Переменный
Общий поток : 3378 Кбит/сек
Видео
Идентификатор : 224 (0xE0)
Формат : MPEG Video
Версия формата : Version 2
Профиль формата : Main@Main
Параметр BVOP формата : Да
Параметр матрицы формата : По умолчанию
Параметр GOP формата : M=3, N=15
Продолжительность : 5 с. 800 мс.
Вид битрейта : Переменный
Битрейт : 3311 Кбит/сек
Максимальный битрейт : 8276 Кбит/сек
Ширина : 720 пикселей
Высота : 576 пикселей
Соотношение сторон : 4:3
Частота кадров : 25,000 кадров/сек
Стандарт вещания : PAL
Цветовое пространство : YUV
Субдискретизация насыщенности : 4:2:0
Битовая глубина : 8 бит
Тип развёртки : Чересстрочная
Порядок развёртки : Нижнее поле первое
Метод сжатия : С потерями
Бит/(Пиксели*Кадры) : 0.319
Размер потока : 2,29 Мбайт (98%)
Основные цвета : BT.601 PAL
Характеристики трансфера : BT.470 System B, BT.470 System G
Коэффициенты матрицы : BT.601
Меню
Общее
Полное имя : F:\МОИ ВИДЕО ЗАПИСИ DViX, AVi, MPG4\ВИДЕО В ФОРМАТЕ VOB\Kadetstvo.3.sezon.70.serij.iz.70.2007.6xDVD9\Disc 5\VIDEO_TS\VTS_02_0.BUP
Формат : DVD Video
Профиль формата : Program
Размер файла : 18,0 Кбайт
Продолжительность : 11 с.
Режим общего битрейта : Переменный
Общий поток : 13,4 Кбит/сек
Видео
Идентификатор : 224 (0xE0)
Формат : MPEG Video
Версия формата : Version 2
Продолжительность : 11 с.
Вид битрейта : Переменный
Ширина : 720 пикселей
Высота : 576 пикселей
Соотношение сторон : 4:3
Частота кадров : 25,000 кадров/сек
Стандарт вещания : PAL
Метод сжатия : С потерями
Аудио
Идентификатор : 128 (0x80)
Формат : AC-3
Формат/Информация : Audio Coding 3
Продолжительность : 11 с.
Каналы : 6 каналов
Частота : 48,0 КГц
Метод сжатия : С потерями
Меню
Продолжительность : 11 с.
00:00:00.000 : Chapter 1
List (Audio) : 0
Общее
Полное имя : F:\МОИ ВИДЕО ЗАПИСИ DViX, AVi, MPG4\ВИДЕО В ФОРМАТЕ VOB\Kadetstvo.3.sezon.70.serij.iz.70.2007.6xDVD9\Disc 5\VIDEO_TS\VTS_02_0.IFO
Формат : DVD Video
Профиль формата : Program
Размер файла : 18,0 Кбайт
Продолжительность : 11 с.
Режим общего битрейта : Переменный
Общий поток : 13,4 Кбит/сек
Видео
Идентификатор : 224 (0xE0)
Формат : MPEG Video
Версия формата : Version 2
Продолжительность : 11 с.
Вид битрейта : Переменный
Ширина : 720 пикселей
Высота : 576 пикселей
Соотношение сторон : 4:3
Частота кадров : 25,000 кадров/сек
Стандарт вещания : PAL
Метод сжатия : С потерями
Аудио
Идентификатор : 128 (0x80)
Формат : AC-3
Формат/Информация : Audio Coding 3
Продолжительность : 11 с.
Каналы : 6 каналов
Частота : 48,0 КГц
Метод сжатия : С потерями
Меню
Продолжительность : 11 с.
00:00:00.000 : Chapter 1
List (Audio) : 0
Общее
Полное имя : F:\МОИ ВИДЕО ЗАПИСИ DViX, AVi, MPG4\ВИДЕО В ФОРМАТЕ VOB\Kadetstvo.3.sezon.70.serij.iz.70.2007.6xDVD9\Disc 5\VIDEO_TS\VTS_02_0.VOB
Формат : MPEG-PS
Размер файла : 154 Кбайт
Продолжительность : 520 мс.
Общий поток : 2426 Кбит/сек
Видео
Идентификатор : 224 (0xE0)
Формат : MPEG Video
Версия формата : Version 2
Профиль формата : Main@Main
Параметр BVOP формата : Да
Параметр матрицы формата : Выборочная
Продолжительность : 520 мс.
Максимальный битрейт : 2000 Кбит/сек
Ширина : 720 пикселей
Высота : 576 пикселей
Соотношение сторон : 4:3
Частота кадров : 25,000 кадров/сек
Стандарт вещания : PAL
Цветовое пространство : YUV
Субдискретизация насыщенности : 4:2:0
Битовая глубина : 8 бит
Тип развёртки : Чересстрочная
Порядок развёртки : Верхнее поле первое
Метод сжатия : С потерями
Текст
Идентификатор : 189 (0xBD)-32 (0x20)
Формат : RLE
Формат/Информация : Run-length encoding
Режим смешивания : DVD-Video
Задержка видео : -80 мс.
Меню
Общее
Полное имя : F:\МОИ ВИДЕО ЗАПИСИ DViX, AVi, MPG4\ВИДЕО В ФОРМАТЕ VOB\Kadetstvo.3.sezon.70.serij.iz.70.2007.6xDVD9\Disc 5\VIDEO_TS\VTS_02_1.VOB
Формат : MPEG-PS
Размер файла : 3,97 Мбайт
Продолжительность : 11 с.
Режим общего битрейта : Переменный
Общий поток : 3020 Кбит/сек
Видео
Идентификатор : 224 (0xE0)
Формат : MPEG Video
Версия формата : Version 2
Профиль формата : Main@Main
Параметр BVOP формата : Да
Параметр матрицы формата : По умолчанию
Параметр GOP формата : M=3, N=15
Продолжительность : 11 с.
Вид битрейта : Переменный
Битрейт : 2512 Кбит/сек
Максимальный битрейт : 4704 Кбит/сек
Ширина : 720 пикселей
Высота : 576 пикселей
Соотношение сторон : 4:3
Частота кадров : 25,000 кадров/сек
Стандарт вещания : PAL
Цветовое пространство : YUV
Субдискретизация насыщенности : 4:2:0
Битовая глубина : 8 бит
Тип развёртки : Чересстрочная
Порядок развёртки : Нижнее поле первое
Метод сжатия : С потерями
Бит/(Пиксели*Кадры) : 0.242
Размер потока : 3,31 Мбайт (83%)
Основные цвета : BT.601 PAL
Характеристики трансфера : BT.470 System B, BT.470 System G
Коэффициенты матрицы : BT.601
Аудио
Идентификатор : 189 (0xBD)-128 (0x80)
Формат : AC-3
Формат/Информация : Audio Coding 3
Расширение режима : CM (complete main)
Параметр Endianness формата : Big
Режим смешивания : DVD-Video
Продолжительность : 11 с.
Вид битрейта : Постоянный
Битрейт : 448 Кбит/сек
Каналы : 6 каналов
Расположение каналов : Front: L C R, Side: L R, LFE
Частота : 48,0 КГц
Битовая глубина : 16 бит
Метод сжатия : С потерями
Размер потока : 602 Кбайт (15%)
Меню
Общее
Полное имя : F:\МОИ ВИДЕО ЗАПИСИ DViX, AVi, MPG4\ВИДЕО В ФОРМАТЕ VOB\Kadetstvo.3.sezon.70.serij.iz.70.2007.6xDVD9\Disc 5\VIDEO_TS\VTS_03_0.BUP
Формат : DVD Video
Профиль формата : Program
Размер файла : 38,0 Кбайт
Продолжительность : 44 м.
Режим общего битрейта : Переменный
Общий поток : 116 бит/сек
Видео
Идентификатор : 224 (0xE0)
Формат : MPEG Video
Версия формата : Version 2
Продолжительность : 44 м.
Вид битрейта : Переменный
Ширина : 720 пикселей
Высота : 576 пикселей
Соотношение сторон : 4:3
Частота кадров : 25,000 кадров/сек
Стандарт вещания : PAL
Метод сжатия : С потерями
Аудио
Идентификатор : 128 (0x80)
Формат : AC-3
Формат/Информация : Audio Coding 3
Продолжительность : 44 м.
Каналы : 2 канала
Частота : 48,0 КГц
Метод сжатия : С потерями
Язык : Russian
Меню
Продолжительность : 44 м.
00:00:00.000 : Chapter 1
00:10:19.360 : Chapter 2
00:22:01.960 : Chapter 3
00:32:33.720 : Chapter 4
00:44:40.840 : Chapter 5
List (Audio) : 0
Общее
Полное имя : F:\МОИ ВИДЕО ЗАПИСИ DViX, AVi, MPG4\ВИДЕО В ФОРМАТЕ VOB\Kadetstvo.3.sezon.70.serij.iz.70.2007.6xDVD9\Disc 5\VIDEO_TS\VTS_03_0.IFO
Формат : DVD Video
Профиль формата : Program
Размер файла : 38,0 Кбайт
Продолжительность : 44 м.
Режим общего битрейта : Переменный
Общий поток : 116 бит/сек
Видео
Идентификатор : 224 (0xE0)
Формат : MPEG Video
Версия формата : Version 2
Продолжительность : 44 м.
Вид битрейта : Переменный
Ширина : 720 пикселей
Высота : 576 пикселей
Соотношение сторон : 4:3
Частота кадров : 25,000 кадров/сек
Стандарт вещания : PAL
Метод сжатия : С потерями
Аудио
Идентификатор : 128 (0x80)
Формат : AC-3
Формат/Информация : Audio Coding 3
Продолжительность : 44 м.
Каналы : 2 канала
Частота : 48,0 КГц
Метод сжатия : С потерями
Язык : Russian
Меню
Продолжительность : 44 м.
00:00:00.000 : Chapter 1
00:10:19.360 : Chapter 2
00:22:01.960 : Chapter 3
00:32:33.720 : Chapter 4
00:44:40.840 : Chapter 5
List (Audio) : 0
Общее
Полное имя : F:\МОИ ВИДЕО ЗАПИСИ DViX, AVi, MPG4\ВИДЕО В ФОРМАТЕ VOB\Kadetstvo.3.sezon.70.serij.iz.70.2007.6xDVD9\Disc 5\VIDEO_TS\VTS_03_0.VOB
Формат : MPEG-PS
Размер файла : 154 Кбайт
Продолжительность : 520 мс.
Общий поток : 2426 Кбит/сек
Видео
Идентификатор : 224 (0xE0)
Формат : MPEG Video
Версия формата : Version 2
Профиль формата : Main@Main
Параметр BVOP формата : Да
Параметр матрицы формата : Выборочная
Продолжительность : 520 мс.
Максимальный битрейт : 2000 Кбит/сек
Ширина : 720 пикселей
Высота : 576 пикселей
Соотношение сторон : 4:3
Частота кадров : 25,000 кадров/сек
Стандарт вещания : PAL
Цветовое пространство : YUV
Субдискретизация насыщенности : 4:2:0
Битовая глубина : 8 бит
Тип развёртки : Чересстрочная
Порядок развёртки : Верхнее поле первое
Метод сжатия : С потерями
Текст
Идентификатор : 189 (0xBD)-32 (0x20)
Формат : RLE
Формат/Информация : Run-length encoding
Режим смешивания : DVD-Video
Задержка видео : -80 мс.
Меню
Общее
Полное имя : F:\МОИ ВИДЕО ЗАПИСИ DViX, AVi, MPG4\ВИДЕО В ФОРМАТЕ VOB\Kadetstvo.3.sezon.70.serij.iz.70.2007.6xDVD9\Disc 5\VIDEO_TS\VTS_03_1.VOB
Формат : MPEG-PS
Размер файла : 655 Мбайт
Продолжительность : 44 м.
Режим общего битрейта : Переменный
Общий поток : 2048 Кбит/сек
Видео
Идентификатор : 224 (0xE0)
Формат : MPEG Video
Версия формата : Version 2
Профиль формата : Main@Main
Параметр BVOP формата : Да
Параметр матрицы формата : Выборочная
Параметр GOP формата : Variable
Продолжительность : 44 м.
Вид битрейта : Переменный
Битрейт : 1815 Кбит/сек
Максимальный битрейт : 6000 Кбит/сек
Ширина : 352 пикселя
Высота : 576 пикселей
Соотношение сторон : 4:3
Частота кадров : 25,000 кадров/сек
Стандарт вещания : PAL
Цветовое пространство : YUV
Субдискретизация насыщенности : 4:2:0
Битовая глубина : 8 бит
Тип развёртки : Прогрессивная
Метод сжатия : С потерями
Бит/(Пиксели*Кадры) : 0.358
Размер потока : 580 Мбайт (89%)
Аудио
Идентификатор : 189 (0xBD)-128 (0x80)
Формат : AC-3
Формат/Информация : Audio Coding 3
Расширение режима : CM (complete main)
Параметр Endianness формата : Big
Режим смешивания : DVD-Video
Продолжительность : 44 м.
Вид битрейта : Постоянный
Битрейт : 192 Кбит/сек
Каналы : 2 канала
Расположение каналов : Front: L R
Частота : 48,0 КГц
Битовая глубина : 16 бит
Метод сжатия : С потерями
Размер потока : 61,4 Мбайт (9%)
Меню
Общее
Полное имя : F:\МОИ ВИДЕО ЗАПИСИ DViX, AVi, MPG4\ВИДЕО В ФОРМАТЕ VOB\Kadetstvo.3.sezon.70.serij.iz.70.2007.6xDVD9\Disc 5\VIDEO_TS\VTS_04_0.BUP
Формат : DVD Video
Профиль формата : Program
Размер файла : 38,0 Кбайт
Продолжительность : 44 м.
Режим общего битрейта : Переменный
Общий поток : 116 бит/сек
Видео
Идентификатор : 224 (0xE0)
Формат : MPEG Video
Версия формата : Version 2
Продолжительность : 44 м.
Вид битрейта : Переменный
Ширина : 720 пикселей
Высота : 576 пикселей
Соотношение сторон : 4:3
Частота кадров : 25,000 кадров/сек
Стандарт вещания : PAL
Метод сжатия : С потерями
Аудио
Идентификатор : 128 (0x80)
Формат : AC-3
Формат/Информация : Audio Coding 3
Продолжительность : 44 м.
Каналы : 2 канала
Частота : 48,0 КГц
Метод сжатия : С потерями
Язык : Russian
Меню
Продолжительность : 44 м.
00:00:00.000 : Chapter 1
00:11:44.240 : Chapter 2
00:22:45.120 : Chapter 3
00:34:13.000 : Chapter 4
00:44:34.040 : Chapter 5
List (Audio) : 0
Общее
Полное имя : F:\МОИ ВИДЕО ЗАПИСИ DViX, AVi, MPG4\ВИДЕО В ФОРМАТЕ VOB\Kadetstvo.3.sezon.70.serij.iz.70.2007.6xDVD9\Disc 5\VIDEO_TS\VTS_04_0.IFO
Формат : DVD Video
Профиль формата : Program
Размер файла : 38,0 Кбайт
Продолжительность : 44 м.
Режим общего битрейта : Переменный
Общий поток : 116 бит/сек
Видео
Идентификатор : 224 (0xE0)
Формат : MPEG Video
Версия формата : Version 2
Продолжительность : 44 м.
Вид битрейта : Переменный
Ширина : 720 пикселей
Высота : 576 пикселей
Соотношение сторон : 4:3
Частота кадров : 25,000 кадров/сек
Стандарт вещания : PAL
Метод сжатия : С потерями
Аудио
Идентификатор : 128 (0x80)
Формат : AC-3
Формат/Информация : Audio Coding 3
Продолжительность : 44 м.
Каналы : 2 канала
Частота : 48,0 КГц
Метод сжатия : С потерями
Язык : Russian
Меню
Продолжительность : 44 м.
00:00:00.000 : Chapter 1
00:11:44.240 : Chapter 2
00:22:45.120 : Chapter 3
00:34:13.000 : Chapter 4
00:44:34.040 : Chapter 5
List (Audio) : 0
Общее
Полное имя : F:\МОИ ВИДЕО ЗАПИСИ DViX, AVi, MPG4\ВИДЕО В ФОРМАТЕ VOB\Kadetstvo.3.sezon.70.serij.iz.70.2007.6xDVD9\Disc 5\VIDEO_TS\VTS_04_0.VOB
Формат : MPEG-PS
Размер файла : 154 Кбайт
Продолжительность : 520 мс.
Общий поток : 2426 Кбит/сек
Видео
Идентификатор : 224 (0xE0)
Формат : MPEG Video
Версия формата : Version 2
Профиль формата : Main@Main
Параметр BVOP формата : Да
Параметр матрицы формата : Выборочная
Продолжительность : 520 мс.
Максимальный битрейт : 2000 Кбит/сек
Ширина : 720 пикселей
Высота : 576 пикселей
Соотношение сторон : 4:3
Частота кадров : 25,000 кадров/сек
Стандарт вещания : PAL
Цветовое пространство : YUV
Субдискретизация насыщенности : 4:2:0
Битовая глубина : 8 бит
Тип развёртки : Чересстрочная
Порядок развёртки : Верхнее поле первое
Метод сжатия : С потерями
Текст
Идентификатор : 189 (0xBD)-32 (0x20)
Формат : RLE
Формат/Информация : Run-length encoding
Режим смешивания : DVD-Video
Задержка видео : -80 мс.
Меню
Общее
Полное имя : F:\МОИ ВИДЕО ЗАПИСИ DViX, AVi, MPG4\ВИДЕО В ФОРМАТЕ VOB\Kadetstvo.3.sezon.70.serij.iz.70.2007.6xDVD9\Disc 5\VIDEO_TS\VTS_04_1.VOB
Формат : MPEG-PS
Размер файла : 653 Мбайт
Продолжительность : 44 м.
Режим общего битрейта : Переменный
Общий поток : 2049 Кбит/сек
Видео
Идентификатор : 224 (0xE0)
Формат : MPEG Video
Версия формата : Version 2
Профиль формата : Main@Main
Параметр BVOP формата : Да
Параметр матрицы формата : Выборочная
Параметр GOP формата : Variable
Продолжительность : 44 м.
Вид битрейта : Переменный
Максимальный битрейт : 6000 Кбит/сек
Ширина : 352 пикселя
Высота : 576 пикселей
Соотношение сторон : 4:3
Частота кадров : 25,000 кадров/сек
Стандарт вещания : PAL
Цветовое пространство : YUV
Субдискретизация насыщенности : 4:2:0
Битовая глубина : 8 бит
Тип развёртки : Прогрессивная
Метод сжатия : С потерями
Аудио #1
Идентификатор : 189 (0xBD)-128 (0x80)
Формат : AC-3
Формат/Информация : Audio Coding 3
Расширение режима : CM (complete main)
Параметр Endianness формата : Big
Режим смешивания : DVD-Video
Продолжительность : 44 м.
Вид битрейта : Постоянный
Битрейт : 192 Кбит/сек
Каналы : 2 канала
Расположение каналов : Front: L R
Частота : 48,0 КГц
Битовая глубина : 16 бит
Метод сжатия : С потерями
Размер потока : 61,2 Мбайт (9%)
Аудио #2
Идентификатор : 192 (0xC0)
Формат : MPEG Audio
Метод сжатия : С потерями
Меню
Общее
Полное имя : F:\МОИ ВИДЕО ЗАПИСИ DViX, AVi, MPG4\ВИДЕО В ФОРМАТЕ VOB\Kadetstvo.3.sezon.70.serij.iz.70.2007.6xDVD9\Disc 5\VIDEO_TS\VTS_05_0.BUP
Формат : DVD Video
Профиль формата : Program
Размер файла : 38,0 Кбайт
Продолжительность : 44 м.
Режим общего битрейта : Переменный
Общий поток : 115 бит/сек
Видео
Идентификатор : 224 (0xE0)
Формат : MPEG Video
Версия формата : Version 2
Продолжительность : 44 м.
Вид битрейта : Переменный
Ширина : 720 пикселей
Высота : 576 пикселей
Соотношение сторон : 4:3
Частота кадров : 25,000 кадров/сек
Стандарт вещания : PAL
Метод сжатия : С потерями
Аудио
Идентификатор : 128 (0x80)
Формат : AC-3
Формат/Информация : Audio Coding 3
Продолжительность : 44 м.
Каналы : 2 канала
Частота : 48,0 КГц
Метод сжатия : С потерями
Язык : Russian
Меню
Продолжительность : 44 м.
00:00:00.000 : Chapter 1
00:10:20.040 : Chapter 2
00:21:18.120 : Chapter 3
00:33:24.720 : Chapter 4
00:44:56.320 : Chapter 5
List (Audio) : 0
Общее
Полное имя : F:\МОИ ВИДЕО ЗАПИСИ DViX, AVi, MPG4\ВИДЕО В ФОРМАТЕ VOB\Kadetstvo.3.sezon.70.serij.iz.70.2007.6xDVD9\Disc 5\VIDEO_TS\VTS_05_0.IFO
Формат : DVD Video
Профиль формата : Program
Размер файла : 38,0 Кбайт
Продолжительность : 44 м.
Режим общего битрейта : Переменный
Общий поток : 115 бит/сек
Видео
Идентификатор : 224 (0xE0)
Формат : MPEG Video
Версия формата : Version 2
Продолжительность : 44 м.
Вид битрейта : Переменный
Ширина : 720 пикселей
Высота : 576 пикселей
Соотношение сторон : 4:3
Частота кадров : 25,000 кадров/сек
Стандарт вещания : PAL
Метод сжатия : С потерями
Аудио
Идентификатор : 128 (0x80)
Формат : AC-3
Формат/Информация : Audio Coding 3
Продолжительность : 44 м.
Каналы : 2 канала
Частота : 48,0 КГц
Метод сжатия : С потерями
Язык : Russian
Меню
Продолжительность : 44 м.
00:00:00.000 : Chapter 1
00:10:20.040 : Chapter 2
00:21:18.120 : Chapter 3
00:33:24.720 : Chapter 4
00:44:56.320 : Chapter 5
List (Audio) : 0
Общее
Полное имя : F:\МОИ ВИДЕО ЗАПИСИ DViX, AVi, MPG4\ВИДЕО В ФОРМАТЕ VOB\Kadetstvo.3.sezon.70.serij.iz.70.2007.6xDVD9\Disc 5\VIDEO_TS\VTS_05_0.VOB
Формат : MPEG-PS
Размер файла : 154 Кбайт
Продолжительность : 520 мс.
Общий поток : 2426 Кбит/сек
Видео
Идентификатор : 224 (0xE0)
Формат : MPEG Video
Версия формата : Version 2
Профиль формата : Main@Main
Параметр BVOP формата : Да
Параметр матрицы формата : Выборочная
Продолжительность : 520 мс.
Максимальный битрейт : 2000 Кбит/сек
Ширина : 720 пикселей
Высота : 576 пикселей
Соотношение сторон : 4:3
Частота кадров : 25,000 кадров/сек
Стандарт вещания : PAL
Цветовое пространство : YUV
Субдискретизация насыщенности : 4:2:0
Битовая глубина : 8 бит
Тип развёртки : Чересстрочная
Порядок развёртки : Верхнее поле первое
Метод сжатия : С потерями
Текст
Идентификатор : 189 (0xBD)-32 (0x20)
Формат : RLE
Формат/Информация : Run-length encoding
Режим смешивания : DVD-Video
Задержка видео : -80 мс.
Меню
Общее
Полное имя : F:\МОИ ВИДЕО ЗАПИСИ DViX, AVi, MPG4\ВИДЕО В ФОРМАТЕ VOB\Kadetstvo.3.sezon.70.serij.iz.70.2007.6xDVD9\Disc 5\VIDEO_TS\VTS_05_1.VOB
Формат : MPEG-PS
Размер файла : 658 Мбайт
Продолжительность : 44 м.
Режим общего битрейта : Переменный
Общий поток : 2048 Кбит/сек
Видео
Идентификатор : 224 (0xE0)
Формат : MPEG Video
Версия формата : Version 2
Профиль формата : Main@Main
Параметр BVOP формата : Да
Параметр матрицы формата : Выборочная
Параметр GOP формата : Variable
Продолжительность : 44 м.
Вид битрейта : Переменный
Битрейт : 1815 Кбит/сек
Максимальный битрейт : 6000 Кбит/сек
Ширина : 352 пикселя
Высота : 576 пикселей
Соотношение сторон : 4:3
Частота кадров : 25,000 кадров/сек
Стандарт вещания : PAL
Цветовое пространство : YUV
Субдискретизация насыщенности : 4:2:0
Битовая глубина : 8 бит
Тип развёртки : Прогрессивная
Метод сжатия : С потерями
Бит/(Пиксели*Кадры) : 0.358
Размер потока : 584 Мбайт (89%)
Аудио
Идентификатор : 189 (0xBD)-128 (0x80)
Формат : AC-3
Формат/Информация : Audio Coding 3
Расширение режима : CM (complete main)
Параметр Endianness формата : Big
Режим смешивания : DVD-Video
Продолжительность : 44 м.
Вид битрейта : Постоянный
Битрейт : 192 Кбит/сек
Каналы : 2 канала
Расположение каналов : Front: L R
Частота : 48,0 КГц
Битовая глубина : 16 бит
Метод сжатия : С потерями
Размер потока : 61,7 Мбайт (9%)
Меню
Общее
Полное имя : F:\МОИ ВИДЕО ЗАПИСИ DViX, AVi, MPG4\ВИДЕО В ФОРМАТЕ VOB\Kadetstvo.3.sezon.70.serij.iz.70.2007.6xDVD9\Disc 5\VIDEO_TS\VTS_06_0.BUP
Формат : DVD Video
Профиль формата : Program
Размер файла : 38,0 Кбайт
Продолжительность : 44 м.
Режим общего битрейта : Переменный
Общий поток : 116 бит/сек
Видео
Идентификатор : 224 (0xE0)
Формат : MPEG Video
Версия формата : Version 2
Продолжительность : 44 м.
Вид битрейта : Переменный
Ширина : 720 пикселей
Высота : 576 пикселей
Соотношение сторон : 4:3
Частота кадров : 25,000 кадров/сек
Стандарт вещания : PAL
Метод сжатия : С потерями
Аудио
Идентификатор : 128 (0x80)
Формат : AC-3
Формат/Информация : Audio Coding 3
Продолжительность : 44 м.
Каналы : 2 канала
Частота : 48,0 КГц
Метод сжатия : С потерями
Язык : Russian
Меню
Продолжительность : 44 м.
00:00:00.000 : Chapter 1
00:10:40.400 : Chapter 2
00:20:55.600 : Chapter 3
00:33:32.520 : Chapter 4
00:44:46.920 : Chapter 5
List (Audio) : 0
Общее
Полное имя : F:\МОИ ВИДЕО ЗАПИСИ DViX, AVi, MPG4\ВИДЕО В ФОРМАТЕ VOB\Kadetstvo.3.sezon.70.serij.iz.70.2007.6xDVD9\Disc 5\VIDEO_TS\VTS_06_0.IFO
Формат : DVD Video
Профиль формата : Program
Размер файла : 38,0 Кбайт
Продолжительность : 44 м.
Режим общего битрейта : Переменный
Общий поток : 116 бит/сек
Видео
Идентификатор : 224 (0xE0)
Формат : MPEG Video
Версия формата : Version 2
Продолжительность : 44 м.
Вид битрейта : Переменный
Ширина : 720 пикселей
Высота : 576 пикселей
Соотношение сторон : 4:3
Частота кадров : 25,000 кадров/сек
Стандарт вещания : PAL
Метод сжатия : С потерями
Аудио
Идентификатор : 128 (0x80)
Формат : AC-3
Формат/Информация : Audio Coding 3
Продолжительность : 44 м.
Каналы : 2 канала
Частота : 48,0 КГц
Метод сжатия : С потерями
Язык : Russian
Меню
Продолжительность : 44 м.
00:00:00.000 : Chapter 1
00:10:40.400 : Chapter 2
00:20:55.600 : Chapter 3
00:33:32.520 : Chapter 4
00:44:46.920 : Chapter 5
List (Audio) : 0
Общее
Полное имя : F:\МОИ ВИДЕО ЗАПИСИ DViX, AVi, MPG4\ВИДЕО В ФОРМАТЕ VOB\Kadetstvo.3.sezon.70.serij.iz.70.2007.6xDVD9\Disc 5\VIDEO_TS\VTS_06_0.VOB
Формат : MPEG-PS
Размер файла : 154 Кбайт
Продолжительность : 520 мс.
Общий поток : 2426 Кбит/сек
Видео
Идентификатор : 224 (0xE0)
Формат : MPEG Video
Версия формата : Version 2
Профиль формата : Main@Main
Параметр BVOP формата : Да
Параметр матрицы формата : Выборочная
Продолжительность : 520 мс.
Максимальный битрейт : 2000 Кбит/сек
Ширина : 720 пикселей
Высота : 576 пикселей
Соотношение сторон : 4:3
Частота кадров : 25,000 кадров/сек
Стандарт вещания : PAL
Цветовое пространство : YUV
Субдискретизация насыщенности : 4:2:0
Битовая глубина : 8 бит
Тип развёртки : Чересстрочная
Порядок развёртки : Верхнее поле первое
Метод сжатия : С потерями
Текст
Идентификатор : 189 (0xBD)-32 (0x20)
Формат : RLE
Формат/Информация : Run-length encoding
Режим смешивания : DVD-Video
Задержка видео : -80 мс.
Меню
Общее
Полное имя : F:\МОИ ВИДЕО ЗАПИСИ DViX, AVi, MPG4\ВИДЕО В ФОРМАТЕ VOB\Kadetstvo.3.sezon.70.serij.iz.70.2007.6xDVD9\Disc 5\VIDEO_TS\VTS_06_1.VOB
Формат : MPEG-PS
Размер файла : 656 Мбайт
Продолжительность : 44 м.
Режим общего битрейта : Переменный
Общий поток : 2048 Кбит/сек
Видео
Идентификатор : 224 (0xE0)
Формат : MPEG Video
Версия формата : Version 2
Профиль формата : Main@Main
Параметр BVOP формата : Да
Параметр матрицы формата : Выборочная
Параметр GOP формата : Variable
Продолжительность : 44 м.
Вид битрейта : Переменный
Битрейт : 1815 Кбит/сек
Максимальный битрейт : 6000 Кбит/сек
Ширина : 352 пикселя
Высота : 576 пикселей
Соотношение сторон : 4:3
Частота кадров : 25,000 кадров/сек
Стандарт вещания : PAL
Цветовое пространство : YUV
Субдискретизация насыщенности : 4:2:0
Битовая глубина : 8 бит
Тип развёртки : Прогрессивная
Метод сжатия : С потерями
Бит/(Пиксели*Кадры) : 0.358
Размер потока : 582 Мбайт (89%)
Аудио
Идентификатор : 189 (0xBD)-128 (0x80)
Формат : AC-3
Формат/Информация : Audio Coding 3
Расширение режима : CM (complete main)
Параметр Endianness формата : Big
Режим смешивания : DVD-Video
Продолжительность : 44 м.
Вид битрейта : Постоянный
Битрейт : 192 Кбит/сек
Каналы : 2 канала
Расположение каналов : Front: L R
Частота : 48,0 КГц
Битовая глубина : 16 бит
Метод сжатия : С потерями
Размер потока : 61,5 Мбайт (9%)
Меню
Общее
Полное имя : F:\МОИ ВИДЕО ЗАПИСИ DViX, AVi, MPG4\ВИДЕО В ФОРМАТЕ VOB\Kadetstvo.3.sezon.70.serij.iz.70.2007.6xDVD9\Disc 5\VIDEO_TS\VTS_07_0.BUP
Формат : DVD Video
Профиль формата : Program
Размер файла : 38,0 Кбайт
Продолжительность : 45 м.
Режим общего битрейта : Переменный
Общий поток : 115 бит/сек
Видео
Идентификатор : 224 (0xE0)
Формат : MPEG Video
Версия формата : Version 2
Продолжительность : 45 м.
Вид битрейта : Переменный
Ширина : 720 пикселей
Высота : 576 пикселей
Соотношение сторон : 4:3
Частота кадров : 25,000 кадров/сек
Стандарт вещания : PAL
Метод сжатия : С потерями
Аудио
Идентификатор : 128 (0x80)
Формат : AC-3
Формат/Информация : Audio Coding 3
Продолжительность : 45 м.
Каналы : 2 канала
Частота : 48,0 КГц
Метод сжатия : С потерями
Язык : Russian
Меню
Продолжительность : 45 м.
00:00:00.000 : Chapter 1
00:09:30.880 : Chapter 2
00:21:23.720 : Chapter 3
00:31:18.880 : Chapter 4
00:45:09.880 : Chapter 5
List (Audio) : 0
Общее
Полное имя : F:\МОИ ВИДЕО ЗАПИСИ DViX, AVi, MPG4\ВИДЕО В ФОРМАТЕ VOB\Kadetstvo.3.sezon.70.serij.iz.70.2007.6xDVD9\Disc 5\VIDEO_TS\VTS_07_0.IFO
Формат : DVD Video
Профиль формата : Program
Размер файла : 38,0 Кбайт
Продолжительность : 45 м.
Режим общего битрейта : Переменный
Общий поток : 115 бит/сек
Видео
Идентификатор : 224 (0xE0)
Формат : MPEG Video
Версия формата : Version 2
Продолжительность : 45 м.
Вид битрейта : Переменный
Ширина : 720 пикселей
Высота : 576 пикселей
Соотношение сторон : 4:3
Частота кадров : 25,000 кадров/сек
Стандарт вещания : PAL
Метод сжатия : С потерями
Аудио
Идентификатор : 128 (0x80)
Формат : AC-3
Формат/Информация : Audio Coding 3
Продолжительность : 45 м.
Каналы : 2 канала
Частота : 48,0 КГц
Метод сжатия : С потерями
Язык : Russian
Меню
Продолжительность : 45 м.
00:00:00.000 : Chapter 1
00:09:30.880 : Chapter 2
00:21:23.720 : Chapter 3
00:31:18.880 : Chapter 4
00:45:09.880 : Chapter 5
List (Audio) : 0
Общее
Полное имя : F:\МОИ ВИДЕО ЗАПИСИ DViX, AVi, MPG4\ВИДЕО В ФОРМАТЕ VOB\Kadetstvo.3.sezon.70.serij.iz.70.2007.6xDVD9\Disc 5\VIDEO_TS\VTS_07_0.VOB
Формат : MPEG-PS
Размер файла : 154 Кбайт
Продолжительность : 520 мс.
Общий поток : 2426 Кбит/сек
Видео
Идентификатор : 224 (0xE0)
Формат : MPEG Video
Версия формата : Version 2
Профиль формата : Main@Main
Параметр BVOP формата : Да
Параметр матрицы формата : Выборочная
Продолжительность : 520 мс.
Максимальный битрейт : 2000 Кбит/сек
Ширина : 720 пикселей
Высота : 576 пикселей
Соотношение сторон : 4:3
Частота кадров : 25,000 кадров/сек
Стандарт вещания : PAL
Цветовое пространство : YUV
Субдискретизация насыщенности : 4:2:0
Битовая глубина : 8 бит
Тип развёртки : Чересстрочная
Порядок развёртки : Верхнее поле первое
Метод сжатия : С потерями
Текст
Идентификатор : 189 (0xBD)-32 (0x20)
Формат : RLE
Формат/Информация : Run-length encoding
Режим смешивания : DVD-Video
Задержка видео : -80 мс.
Меню
Общее
Полное имя : F:\МОИ ВИДЕО ЗАПИСИ DViX, AVi, MPG4\ВИДЕО В ФОРМАТЕ VOB\Kadetstvo.3.sezon.70.serij.iz.70.2007.6xDVD9\Disc 5\VIDEO_TS\VTS_07_1.VOB
Формат : MPEG-PS
Размер файла : 662 Мбайт
Продолжительность : 45 м.
Режим общего битрейта : Переменный
Общий поток : 2049 Кбит/сек
Видео
Идентификатор : 224 (0xE0)
Формат : MPEG Video
Версия формата : Version 2
Профиль формата : Main@Main
Параметр BVOP формата : Да
Параметр матрицы формата : Выборочная
Параметр GOP формата : Variable
Продолжительность : 45 м.
Вид битрейта : Переменный
Битрейт : 1816 Кбит/сек
Максимальный битрейт : 6000 Кбит/сек
Ширина : 352 пикселя
Высота : 576 пикселей
Соотношение сторон : 4:3
Частота кадров : 25,000 кадров/сек
Стандарт вещания : PAL
Цветовое пространство : YUV
Субдискретизация насыщенности : 4:2:0
Битовая глубина : 8 бит
Тип развёртки : Прогрессивная
Метод сжатия : С потерями
Бит/(Пиксели*Кадры) : 0.358
Размер потока : 587 Мбайт (89%)
Аудио
Идентификатор : 189 (0xBD)-128 (0x80)
Формат : AC-3
Формат/Информация : Audio Coding 3
Расширение режима : CM (complete main)
Параметр Endianness формата : Big
Режим смешивания : DVD-Video
Продолжительность : 45 м.
Вид битрейта : Постоянный
Битрейт : 192 Кбит/сек
Каналы : 2 канала
Расположение каналов : Front: L R
Частота : 48,0 КГц
Битовая глубина : 16 бит
Метод сжатия : С потерями
Размер потока : 62,0 Мбайт (9%)
Меню
Общее
Полное имя : F:\МОИ ВИДЕО ЗАПИСИ DViX, AVi, MPG4\ВИДЕО В ФОРМАТЕ VOB\Kadetstvo.3.sezon.70.serij.iz.70.2007.6xDVD9\Disc 5\VIDEO_TS\VTS_08_0.BUP
Формат : DVD Video
Профиль формата : Program
Размер файла : 38,0 Кбайт
Продолжительность : 45 м.
Режим общего битрейта : Переменный
Общий поток : 115 бит/сек
Видео
Идентификатор : 224 (0xE0)
Формат : MPEG Video
Версия формата : Version 2
Продолжительность : 45 м.
Вид битрейта : Переменный
Ширина : 720 пикселей
Высота : 576 пикселей
Соотношение сторон : 4:3
Частота кадров : 25,000 кадров/сек
Стандарт вещания : PAL
Метод сжатия : С потерями
Аудио
Идентификатор : 128 (0x80)
Формат : AC-3
Формат/Информация : Audio Coding 3
Продолжительность : 45 м.
Каналы : 2 канала
Частота : 48,0 КГц
Метод сжатия : С потерями
Язык : Russian
Меню
Продолжительность : 45 м.
00:00:00.000 : Chapter 1
00:11:44.400 : Chapter 2
00:21:11.400 : Chapter 3
00:32:59.640 : Chapter 4
00:45:08.920 : Chapter 5
List (Audio) : 0

DVDInfo

Title: Disc 5
Size: 7.91 Gb ( 8 289 350,00 KBytes ) - DVD-9
Enabled regions: 1, 2, 3, 4, 5, 6
VTS_01 :
Play Length: 00:00:05
Video: PAL 4:3 (720x576) VBR
VTS_02 :
Play Length: 00:00:11
Video: PAL 4:3 (720x576) VBR
Audio:
Not specified (Dolby AC3, 6 ch)
VTS_03 :
Play Length: 00:44:41
Video: PAL 4:3 (720x576) VBR
Audio:
Russian (Dolby AC3, 2 ch)
VTS_04 :
Play Length: 00:44:34
Video: PAL 4:3 (720x576) VBR
Audio:
Russian (Dolby AC3, 2 ch)
VTS_05 :
Play Length: 00:44:56
Video: PAL 4:3 (720x576) VBR
Audio:
Russian (Dolby AC3, 2 ch)
VTS_06 :
Play Length: 00:44:47
Video: PAL 4:3 (720x576) VBR
Audio:
Russian (Dolby AC3, 2 ch)
VTS_07 :
Play Length: 00:45:10
Video: PAL 4:3 (720x576) VBR
Audio:
Russian (Dolby AC3, 2 ch)
VTS_08 :
Play Length: 00:45:09
Video: PAL 4:3 (720x576) VBR
Audio:
Russian (Dolby AC3, 2 ch)
VTS_09 :
Play Length: 00:44:57
Video: PAL 4:3 (720x576) VBR
Audio:
Russian (Dolby AC3, 2 ch)
VTS_10 :
Play Length: 00:44:41
Video: PAL 4:3 (720x576) VBR
Audio:
Russian (Dolby AC3, 2 ch)
VTS_11 :
Play Length: 00:44:32
Video: PAL 4:3 (720x576) VBR
Audio:
Russian (Dolby AC3, 2 ch)
VTS_12 :
Play Length: 00:44:47
Video: PAL 4:3 (720x576) VBR
Audio:
Russian (Dolby AC3, 2 ch)
VTS_13 :
Play Length: 00:44:54
Video: PAL 4:3 (720x576) VBR
Audio:
Russian (Dolby AC3, 2 ch)
VTS_14 :
Play Length: 00:44:45
Video: PAL 4:3 (720x576) VBR
Audio:
Russian (Dolby AC3, 2 ch)

Скриншоты

Вы не можете начинать темы
Вы не можете отвечать на сообщения
Вы не можете редактировать свои сообщения
Вы не можете удалять свои сообщения
Вы не можете голосовать в опросах
Вы не можете прикреплять файлы к сообщениям
Вы можете скачивать файлы
!ВНИМАНИЕ!

Сайт не предоставляет электронные версии произведений, а занимается лишь коллекционированием и каталогизацией ссылок, присылаемых и публикуемых на форуме нашими читателями. Если вы являетесь правообладателем какого-либо представленного материала и не желаете, чтобы ссылка на него находилась в нашем каталоге, свяжитесь с нами, и мы незамедлительно удалим ее. Файлы для обмена на трекере предоставлены пользователями сайта, и администрация не несет ответственности за их содержание. Просьба не заливать файлы, защищенные авторскими правами, а также файлы нелегального содержания!

Искали программы, игры, дополнения, музыка mp3, аниме, аудио книги, журналы? Добро пожаловать на свободный торрент трекер B-Tor.Ru, у нас можно скачать бесплатно, без смс и регистрации и прочих ограничений лучшие, отборные сборки программ, игр. Скачать торрентом не составит труда даже не опытному пользователю. Раздачи ежедневно обновляются, только лучшие и качественные раздачи, подробные описания и скриншоты. Огромная коллекция программ для работы со звуком, графикой, дизайном, а так же множество плагинов и инструментов к ним с подробной инструкцией и рекомендациями. Прошивки для навигаторов, карты. Разнообразные игры, для Windows, Linux. В коллекцие есть и старые игры любых жанров, Rpg, Action, Shooter, strategy Множество дополнений, модификаций, сценариев для популярных игр в жанре экш, рпг, гонки, стратегии, логические игры. Множество аддонов и сценариев для Microsoft Flight Simulator Большая коллекция книг, учебников. Если нет возможности купить печатное издание - смело скачивайте цифровую версию книги или, быть может, журнала. Не любите читать - можно загрузить бесплатно аудикнигу. Для веб дизайнеров и программистов так же найдется множество специализированного софта, таких как: редакторы с подсветкой, среды программирования, компоненты, системы управления базами данных, разнообразные скрипты и шаблоны. Не так давно у нас появился материал для автолюбителей и владельцев мото - оригинальные и неоригинальные каталоги запчастей, книги и журналы по ремонту и обслуживанию, видеоуроки, статьи по чип тюнингу, прошивкам. Процедура получения контента элементарная, достаточно просто скачать торрент файл и добавить его в загрузку в вашем торрент клиенте. Если у вас нет специального торрент клиента, вы можете его скачать у нас.