Несмонтированный фильм / Кино есть кино / Yeong-hwa-neun yeong-hwa-da / Rough Cut / A Movie Is a Movie (Чан Хун / Jang Hun) [2008, Южная Корея, боевик, драма, BDRip 720p] MVO (GREEN TEA & Jimmy J.) + DVO (CGInfo) + Original (Kor) + Sub (Rus, Eng) 

Цитировать
Несмонтированный фильм / Кино есть кино / Yeong-hwa-neun yeong-hwa-da / Yeonghwanun yeonghwada / Rough Cut / A Movie Is a Movie
Год выпуска: 2008
Страна: Южная Корея
Жанр: боевик, драма, криминал
Продолжительность: 01:52:48
Перевод №1: любительский многоголосый закадровый (GREEN TEA & Jimmy J.)
Перевод №2: любительский двухголосый закадровый (CGInfo)
Субтитры: русские, английские
Оригинальная аудиодорожка: корейская
Оглавление: 12 глав
Режиссёр: Чан Хун /Jang Hun/
В ролях: Со Джи-соп /So Ji-seob/, Кан Джи-хван /Kang Ji-Hwan/, Хон Су-хён /Hong Soo-hyun/, Ко Чхан-сок /Ko Chang-Seok/, Пак Су-ён /Park Su-young/, Сон Ён-тхэ /Song Yeong-tak/, Хан Ки Чжун /Han Gi-Joong/, Чон Ман-щик /Jeong Man-sik/, Чан Хи-джин /Jang Hie-jin/
Описание:
Благодаря своей жестокости и исполнительности Кан-пхэ занял почетное место правой руки босса. Когда тот попадает в тюрьму, Кан-пхэ должен разобраться с главным свидетелем обвинения, имеющего против босса неоспоримые улики.
Су-тха — звезда гангстерских боевиков. Он высокомерен, эгоистичен и не умеет сдерживать эмоции и кулаки. Он попадает в затруднительное положение, после того как отправляет двух коллег по фильму в больницу. Общественность и пресса спустила на него собак, и никто из актеров больше не хочет с ним работать.
Случайно в баре Су-тха встречает Кан-пхэ. Кан-пхэ признается, что он давний поклонник актёра и даже когда-то мечтал сниматься в кино. Су-тха сначала смеется над ним, но вскоре, не видя другого выхода и подчиняясь внезапному порыву, предлагает Кан-пхэ сыграть роль его противника в фильме. Тот соглашается, но с одним условием: все сцены драк они будут снимать по-настоящему. Довольный сделкой Су-тха не подозревает, что это условие может кардинально изменить изначальный сценарий фильма.
Дополнительная информация:
IMDB User Rating→: 7.2/10 (1,732 votes)
Рейтинг фильма КиноПоиск.Ru→: 7.532 (1740 голосов)
  • В озвучке GREEN TEA присутствует ненормативная лексика.
Качество: BDRip (исходник: Yeong-hwa-neun yeong-hwa-da 2008 1080p Blu-ray AVC DTS-HD MA 5.1-ARiN)
Контейнер: MKV
Видеопоток: 1280x690p, 23.976 fps, x264 ~8188 kbps
Аудиопоток №1 (RUS): DD 2.0, 48 kHz, 192 kbps | любительский многоголосый закадровый (GREEN TEA & Jimmy J.)
Аудиопоток №2 (RUS): DD 5.1, 48 kHz, 448 kbps | любительский двухголосый закадровый (CGInfo)
Аудиопоток №3 (KOR): DD 5.1, 48 kHz, 640 kbps
Аудиопоток №4 (KOR): AAC-LC 2.0, 48 kHz, ~72 kbps | комментарии режиссёра Чан Хуна и актёра Ко Чхан-сока
Субтитры №1 (RUS): SRT/UTF8 | terra
Субтитры №2 (ENG): SRT/UTF8
Сэмпл: Яндекс.Диск→

x264 Log

x264 [info]: frame I:1373  Avg QP:14.46  size:130156
x264 [info]: frame P:28784 Avg QP:15.99  size: 64684
x264 [info]: frame B:132117 Avg QP:17.32  size: 36987
x264 [info]: consecutive B-frames:  1.7%  1.6%  3.7% 11.3% 10.9% 36.7%  8.1%  7.0%  4.1%  1.8%  1.9%  6.5%  1.7%  1.0%  0.9%  0.4%  0.5%

MediaInfo

General
Unique ID                   : 170566790621279978020373565066804783876 (0x8051F80D9A3263588AECD3BF4574EB04)
Complete name               : Yeong-hwa-neun.yeong-hwa-da.2008.720p.BDRip.x264.DD.SRT-d0ber.mkv
Format                      : Matroska
Format version              : Version 4 / Version 2
File size                   : 7.52 GiB
Duration                    : 1 h 52 min
Overall bit rate            : 9 545 kb/s
Movie name                  : Yeong-hwa-neun yeong-hwa-da (2008) 720p BDRip by d0ber.maNN
Encoded date                : UTC 2017-06-07 14:35:13
Writing application         : mkvmerge v8.3.0 ('Over the Horizon') 64bit
Writing library             : libebml v1.3.1 + libmatroska v1.4.2
Video
ID                          : 1
Format                      : AVC
Format/Info                 : Advanced Video Codec
Format profile              : High@L4.1
Format settings, CABAC      : Yes
Format settings, ReFrames   : 9 frames
Codec ID                    : V_MPEG4/ISO/AVC
Duration                    : 1 h 52 min
Bit rate                    : 8 188 kb/s
Width                       : 1 280 pixels
Height                      : 690 pixels
Display aspect ratio        : 1.85:1
Frame rate mode             : Constant
Frame rate                  : 23.976 (24000/1001) FPS
Color space                 : YUV
Chroma subsampling          : 4:2:0
Bit depth                   : 8 bits
Scan type                   : Progressive
Bits/(Pixel*Frame)          : 0.387
Stream size                 : 6.45 GiB (86%)
Title                       : 1280x690, 23.976 fps, x264 ~8188 kbps
Writing library             : x264 core 150 r2833 df79067
Encoding settings           : cabac=1 / ref=9 / deblock=1:-3:-3 / analyse=0x3:0x133 / me=tesa / subme=11 / psy=1 / psy_rd=0.95:0.00 / mixed_ref=1 / me_range=64 / chroma_me=1 / trellis=2 / 8x8dct=1 / cqm=0 / deadzone=21,11 / fast_pskip=0 / chroma_qp_offset=-2 / threads=6 / lookahead_threads=1 / sliced_threads=0 / nr=0 / decimate=0 / interlaced=0 / bluray_compat=0 / constrained_intra=0 / bframes=16 / b_pyramid=2 / b_adapt=2 / b_bias=0 / direct=3 / weightb=1 / open_gop=0 / weightp=2 / keyint=240 / keyint_min=23 / scenecut=40 / intra_refresh=0 / rc_lookahead=240 / rc=crf / mbtree=0 / crf=16.0 / qcomp=0.60 / qpmin=0 / qpmax=69 / qpstep=4 / vbv_maxrate=62500 / vbv_bufsize=78125 / crf_max=0.0 / nal_hrd=none / filler=0 / ip_ratio=1.30 / pb_ratio=1.20 / aq=1:0.70
Language                    : Korean
Default                     : Yes
Forced                      : No
Audio #1
ID                          : 2
Format                      : AC-3
Format/Info                 : Audio Coding 3
Mode extension              : CM (complete main)
Format settings, Endianness : Big
Codec ID                    : A_AC3
Duration                    : 1 h 52 min
Bit rate mode               : Constant
Bit rate                    : 192 kb/s
Channel(s)                  : 2 channels
Channel positions           : Front: L R
Sampling rate               : 48.0 kHz
Frame rate                  : 31.250 FPS (1536 spf)
Bit depth                   : 16 bits
Compression mode            : Lossy
Stream size                 : 155 MiB (2%)
Title                       : RUS MVO GREEN TEA & Jimmy J. DD 2.0, 48 kHz, 192 kbps
Language                    : Russian
Default                     : Yes
Forced                      : No
Audio #2
ID                          : 3
Format                      : AC-3
Format/Info                 : Audio Coding 3
Mode extension              : CM (complete main)
Format settings, Endianness : Big
Codec ID                    : A_AC3
Duration                    : 1 h 52 min
Bit rate mode               : Constant
Bit rate                    : 448 kb/s
Channel(s)                  : 6 channels
Channel positions           : Front: L C R, Side: L R, LFE
Sampling rate               : 48.0 kHz
Frame rate                  : 31.250 FPS (1536 spf)
Bit depth                   : 16 bits
Compression mode            : Lossy
Stream size                 : 361 MiB (5%)
Title                       : RUS DVO CGInfo DD 5.1, 48 kHz, 448 kbps
Language                    : Russian
Default                     : No
Forced                      : No
Audio #3
ID                          : 4
Format                      : AC-3
Format/Info                 : Audio Coding 3
Mode extension              : CM (complete main)
Format settings, Endianness : Big
Codec ID                    : A_AC3
Duration                    : 1 h 52 min
Bit rate mode               : Constant
Bit rate                    : 640 kb/s
Channel(s)                  : 6 channels
Channel positions           : Front: L C R, Side: L R, LFE
Sampling rate               : 48.0 kHz
Frame rate                  : 31.250 FPS (1536 spf)
Bit depth                   : 16 bits
Compression mode            : Lossy
Stream size                 : 516 MiB (7%)
Title                       : KOR DD 5.1, 48 kHz, 640 kbps
Language                    : Korean
Default                     : No
Forced                      : No
Audio #4
ID                          : 5
Format                      : AAC
Format/Info                 : Advanced Audio Codec
Format profile              : LC
Codec ID                    : A_AAC
Duration                    : 1 h 52 min
Bit rate                    : 72.0 kb/s
Channel(s)                  : 2 channels
Channel positions           : Front: L R
Sampling rate               : 48.0 kHz
Frame rate                  : 46.875 FPS (1024 spf)
Compression mode            : Lossy
Delay relative to video     : 9 ms
Stream size                 : 59.1 MiB (1%)
Title                       : KOR Commentary AAC-LC 2.0, 48 kHz, ~72 kbps
Language                    : Korean
Default                     : No
Forced                      : No
Text #1
ID                          : 6
Format                      : UTF-8
Codec ID                    : S_TEXT/UTF8
Codec ID/Info               : UTF-8 Plain Text
Duration                    : 1 h 50 min
Bit rate                    : 65 b/s
Count of elements           : 1096
Stream size                 : 53.2 KiB (0%)
Title                       : RUS terra SRT
Language                    : Russian
Default                     : No
Forced                      : No
Text #2
ID                          : 7
Format                      : UTF-8
Codec ID                    : S_TEXT/UTF8
Codec ID/Info               : UTF-8 Plain Text
Duration                    : 1 h 48 min
Bit rate                    : 38 b/s
Count of elements           : 1106
Stream size                 : 30.7 KiB (0%)
Title                       : ENG SRT
Language                    : English
Default                     : No
Forced                      : No
Menu
00:00:00.000                : ko:00:00:00.000
00:14:08.306                : ko:00:14:08.306
00:19:50.689                : ko:00:19:50.689
00:28:34.630                : ko:00:28:34.630
00:37:35.795                : ko:00:37:35.795
00:45:50.206                : ko:00:45:50.206
00:54:11.415                : ko:00:54:11.415
01:03:53.496                : ko:01:03:53.496
01:12:16.457                : ko:01:12:16.457
01:22:29.903                : ko:01:22:29.903
01:38:50.424                : ko:01:38:50.424
01:46:13.409                : ko:01:46:13.409

Скриншоты


Source vs. Rip


Вы не можете начинать темы
Вы не можете отвечать на сообщения
Вы не можете редактировать свои сообщения
Вы не можете удалять свои сообщения
Вы не можете голосовать в опросах
Вы не можете прикреплять файлы к сообщениям
Вы можете скачивать файлы
!ВНИМАНИЕ!

Сайт не предоставляет электронные версии произведений, а занимается лишь коллекционированием и каталогизацией ссылок, присылаемых и публикуемых на форуме нашими читателями. Если вы являетесь правообладателем какого-либо представленного материала и не желаете, чтобы ссылка на него находилась в нашем каталоге, свяжитесь с нами, и мы незамедлительно удалим ее. Файлы для обмена на трекере предоставлены пользователями сайта, и администрация не несет ответственности за их содержание. Просьба не заливать файлы, защищенные авторскими правами, а также файлы нелегального содержания!

Искали программы, игры, дополнения, музыка mp3, аниме, аудио книги, журналы? Добро пожаловать на свободный торрент трекер B-Tor.Ru, у нас можно скачать бесплатно, без смс и регистрации и прочих ограничений лучшие, отборные сборки программ, игр. Скачать торрентом не составит труда даже не опытному пользователю. Раздачи ежедневно обновляются, только лучшие и качественные раздачи, подробные описания и скриншоты. Огромная коллекция программ для работы со звуком, графикой, дизайном, а так же множество плагинов и инструментов к ним с подробной инструкцией и рекомендациями. Прошивки для навигаторов, карты. Разнообразные игры, для Windows, Linux. В коллекцие есть и старые игры любых жанров, Rpg, Action, Shooter, strategy Множество дополнений, модификаций, сценариев для популярных игр в жанре экш, рпг, гонки, стратегии, логические игры. Множество аддонов и сценариев для Microsoft Flight Simulator Большая коллекция книг, учебников. Если нет возможности купить печатное издание - смело скачивайте цифровую версию книги или, быть может, журнала. Не любите читать - можно загрузить бесплатно аудикнигу. Для веб дизайнеров и программистов так же найдется множество специализированного софта, таких как: редакторы с подсветкой, среды программирования, компоненты, системы управления базами данных, разнообразные скрипты и шаблоны. Не так давно у нас появился материал для автолюбителей и владельцев мото - оригинальные и неоригинальные каталоги запчастей, книги и журналы по ремонту и обслуживанию, видеоуроки, статьи по чип тюнингу, прошивкам. Процедура получения контента элементарная, достаточно просто скачать торрент файл и добавить его в загрузку в вашем торрент клиенте. Если у вас нет специального торрент клиента, вы можете его скачать у нас.