Остаться в Живых / LOST / Сезон 1 / Серии 1-25 (полный) (Джей Джей Абрамс) [2004, США, Драма, приключения,триллер, BDRemux 1080p] (DD 5.1 Tycoon и Первый) 

Цитировать
Остаться в живых / Lost / Сезон 1 Серии 1-25
Год выпуска: 2004
Страна: США
Жанр: Приключения, Драма, Триллер
Перевод: Профессиональный (Многоголосный, закадровый) Tycoon Studio
Профессиональный (полное дублирование) Первый канал
Субтитры: Русские и английские
Продолжительность: ~45min х 25
Режиссер: Джек Бендер, Джей Джей Абрамс
В ролях: Мэтью Фокс, Эвангелина Лили, Доминик Монаган, Гарольд Перрино-мл., Джордж Гарсия, Малкольм Дэвид Келли, Фредерик Ленн, Джон Диксон, Майкл Артур и др.
Описание: Авиалайнер совершал полет над Тихим океаном и рухнул на один из его островов. С этой минуты остаться в живых станет целью для 48 уцелевших пассажиров. В экстремальной ситуации человек открывается таким, каким его раньше никто не знал. Кажется, все оказываются в общей беде. Но кто-то паникует, а кто-то обнаруживает в себе качества лидера, чтобы повести оставшихся за собой. Идти вперед - значит выжить. Поддаться общему настроению, допустить сомнения в свою душу - означает погубить не только себя, но и всех остальных. Положение уцелевших усугубляет таинственный остров. Жертвы авиакатастрофы должны победить все опасности, которыми это местечко в Тихом океане пытается их погубить. Остров расставляет для спутников опасные ловушки, тот кто не может справиться - погибает.-Качество: BDRemux
Формат: MKV
Видео: MPEG-4 AVC Video, 1920x1080, ~20000-22000 kbps, 23.976 fps; 0.432 bpx
Аудио:
Аудио 1 (русская) (Tycoon): AC3 DD 5.1, 640 kbit/s, 48K ; / УЛУЧШЕНА ЗВУКОВАЯ ДОРОГА ОТ ТАЙКУН. ИСХОДНИКОМ ПОСЛУЖИЛ ОРИГИНАЛЬНЫЙ DTS /
Аудио 2 (русская) (Первый канал): AC3 DD 5.1, 448 kbit/s, 48k
Аудио 3 (английская): DTS 5.1, ~1500 kbit/s, 48K, core
Субтитры:
1: Русские (корейские диалоги, надписи );
2: Русские (Полные);
3: Английские (Полные);
За русские дорожки 5.1 благодарим lostrator
2-ой сезон в таком же исполнении http://rutracker.org/forum/viewtopic.php?t=3332648

Скриншоты








MediaInfo

General
Complete name : Lost.S01E01.1080p.BluRay.Remux.mkv
Format : Matroska
File size : 7.26 GiB
Duration : 42mn 20s
Overall bit rate : 24.5 Mbps
Encoded date : UTC 2011-01-26 08:23:20
Writing application : mkvmerge v3.2.0 ('Beginnings') built on Feb 12 2010 16:46:17
Writing library : libebml v0.7.9 + libmatroska v0.8.1
Video
ID : 1
Format : AVC
Format/Info : Advanced Video Codec
Format profile : High@L4.1
Format settings, CABAC : Yes
Format settings, ReFrames : 2 frames
Muxing mode : Container profile=Unknown@4.1
Codec ID : V_MPEG4/ISO/AVC
Duration : 42mn 18s
Bit rate : 21.5 Mbps
Width : 1 920 pixels
Height : 1 080 pixels
Display aspect ratio : 16:9
Frame rate : 23.976 fps
Resolution : 24 bits
Colorimetry : 4:2:0
Scan type : Progressive
Bits/(Pixel*Frame) : 0.432
Stream size : 6.34 GiB (87%)
Language : English
Audio #1
ID : 2
Format : AC-3
Format/Info : Audio Coding 3
Codec ID : A_AC3
Duration : 42mn 20s
Bit rate mode : Constant
Bit rate : 640 Kbps
Channel(s) : 6 channels
Channel positions : Front: L C R, Surround: L R, LFE
Sampling rate : 48.0 KHz
Stream size : 194 MiB (3%)
Title : DD 5.1 @ Tycoon Studio
Language : Russian
Audio #2
ID : 3
Format : AC-3
Format/Info : Audio Coding 3
Codec ID : A_AC3
Duration : 42mn 20s
Bit rate mode : Constant
Bit rate : 448 Kbps
Channel(s) : 6 channels
Channel positions : Front: L C R, Surround: L R, LFE
Sampling rate : 48.0 KHz
Stream size : 136 MiB (2%)
Title : DD 5.1 @ Channel One
Language : Russian
Audio #3
ID : 4
Format : DTS
Format/Info : Digital Theater Systems
Codec ID : A_DTS
Duration : 42mn 20s
Bit rate mode : Constant
Bit rate : 1 510 Kbps
Channel(s) : 6 channels
Channel positions : Front: L C R, Surround: L R, LFE
Sampling rate : 48.0 KHz
Resolution : 24 bits
Stream size : 457 MiB (6%)
Title : DTS 5.1 @ Core
Language : English
Text #1
ID : 5
Format : ASS
Codec ID : S_TEXT/ASS
Codec ID/Info : Advanced Sub Station Alpha
Title : Russian @ Forced ASS
Language : Russian
Text #2
ID : 6
Format : ASS
Codec ID : S_TEXT/ASS
Codec ID/Info : Advanced Sub Station Alpha
Title : Russian @ ASS
Language : Russian
Text #3
ID : 7
Format : ASS
Codec ID : S_TEXT/ASS
Codec ID/Info : Advanced Sub Station Alpha
Title : English @ ASS
Language : English
Menu
00:00:00.000 : en:Chapter 1
00:07:32.034 : en:Chapter 2
00:21:16.775 : en:Chapter 3
00:30:07.847 : en:Chapter 4
00:39:01.964 : en:Chapter 5
00:41:39.538 : en:Chapter 6
Вы не можете начинать темы
Вы не можете отвечать на сообщения
Вы не можете редактировать свои сообщения
Вы не можете удалять свои сообщения
Вы не можете голосовать в опросах
Вы не можете прикреплять файлы к сообщениям
Вы можете скачивать файлы
!ВНИМАНИЕ!

Сайт не предоставляет электронные версии произведений, а занимается лишь коллекционированием и каталогизацией ссылок, присылаемых и публикуемых на форуме нашими читателями. Если вы являетесь правообладателем какого-либо представленного материала и не желаете, чтобы ссылка на него находилась в нашем каталоге, свяжитесь с нами, и мы незамедлительно удалим ее. Файлы для обмена на трекере предоставлены пользователями сайта, и администрация не несет ответственности за их содержание. Просьба не заливать файлы, защищенные авторскими правами, а также файлы нелегального содержания!

Искали программы, игры, дополнения, музыка mp3, аниме, аудио книги, журналы? Добро пожаловать на свободный торрент трекер B-Tor.Ru, у нас можно скачать бесплатно, без смс и регистрации и прочих ограничений лучшие, отборные сборки программ, игр. Скачать торрентом не составит труда даже не опытному пользователю. Раздачи ежедневно обновляются, только лучшие и качественные раздачи, подробные описания и скриншоты. Огромная коллекция программ для работы со звуком, графикой, дизайном, а так же множество плагинов и инструментов к ним с подробной инструкцией и рекомендациями. Прошивки для навигаторов, карты. Разнообразные игры, для Windows, Linux. В коллекцие есть и старые игры любых жанров, Rpg, Action, Shooter, strategy Множество дополнений, модификаций, сценариев для популярных игр в жанре экш, рпг, гонки, стратегии, логические игры. Множество аддонов и сценариев для Microsoft Flight Simulator Большая коллекция книг, учебников. Если нет возможности купить печатное издание - смело скачивайте цифровую версию книги или, быть может, журнала. Не любите читать - можно загрузить бесплатно аудикнигу. Для веб дизайнеров и программистов так же найдется множество специализированного софта, таких как: редакторы с подсветкой, среды программирования, компоненты, системы управления базами данных, разнообразные скрипты и шаблоны. Не так давно у нас появился материал для автолюбителей и владельцев мото - оригинальные и неоригинальные каталоги запчастей, книги и журналы по ремонту и обслуживанию, видеоуроки, статьи по чип тюнингу, прошивкам. Процедура получения контента элементарная, достаточно просто скачать торрент файл и добавить его в загрузку в вашем торрент клиенте. Если у вас нет специального торрент клиента, вы можете его скачать у нас.