Лучший отряд / Полицейские в юбках / The Inspector Wears Skirts / Ba wong fa (Уэллсон Чин / Wellson Chin) [1988, Гонконг, боевик, комедия, BDRip 720p] AVO (А. Дольский) + Sub Eng + Original Chi 

Цитировать
Лучший отряд / Полицейские в юбках / The Inspector Wears Skirts / Ba wong fa
Страна: Гонконг
Студия: Golden Harvest Company, Golden Way Films Ltd., Paragon Films Ltd.
Жанр: боевик, комедия
Год выпуска: 1988
Продолжительность: 01:35:14
Перевод: Авторский (одноголосый закадровый) А. Дольский
Субтитры: английские
Оригинальная аудиодорожка: китайский
Режиссер: Уэллсон Чин / Wellson Chin
В ролях: Эллен Чан, Энн Бриджуотер, Энтони Карпио, Деннис Чан, Джоэнна Чан, Ванесса Чан, Майкл Чоу, Ман-Кин Джеффри, Фалкон Чуи-Фан, Фунг Сибелль Ху.
Описание: После обучения в полицейской академии, где красотки постоянно надирают уши зазнавшимся мужчинам, они приступают к выполнению ответственных заданий. Именно женской команде трезвых, умных, ловких бойцов поручают вызволить своих незадачливых мужчин-полицейских, ставших заложниками бандитов…
II Сэмпл II IMDB II
Релиз группа:

Доп. информация:
Заказ перевода Андея Дольского - Юрай, vedigo
Тип релиза: BDRip 720p
Контейнер: MKV
Видео: AVC / 1280x678 / 16:9 / 23.976fps / 7000Kbps / High@L4.1
Аудио 1: AC3 / 48.0 KHz / 6ch / 640kbps / Rus / AVO / А. Дольский
Аудио 2: AC3 / 48.0 KHz / 6ch / 640kbps / Cantonese
Аудио 3: AC3 / 48.0 KHz / 6ch / 640kbps / Mandarin
Формат субтитров: softsub (SRT)

MediaInfo

Общее
Уникальный идентификатор : 218343980897625245753401398025948725199 (0xA4438566BA343965A0179A80237B7FCF)
Полное имя : G:\!!!_torrent\The.Inspector.Wear.Skirts.1988.BDRip.720p_by_vedigo.mkv
Формат : Matroska
Версия формата : Version 4 / Version 2
Размер файла : 5,93 Гбайт
Продолжительность : 1 ч. 35 м.
Общий поток : 8919 Кбит/сек
Название фильма : The.Inspector.Wear.Skirts.1988.BDRip.720p_by_vedigo
Дата кодирования : UTC 2017-01-01 11:53:54
Программа кодирования : mkvmerge v9.7.1 ('Pandemonium') 64bit
Библиотека кодирования : libebml v1.3.4 + libmatroska v1.4.5
Видео
Идентификатор : 1
Формат : AVC
Формат/Информация : Advanced Video Codec
Профиль формата : High@L4.1
Параметр CABAC формата : Да
Параметр ReFrames формата : 9 кадров
Идентификатор кодека : V_MPEG4/ISO/AVC
Продолжительность : 1 ч. 35 м.
Битрейт : 7000 Кбит/сек
Ширина : 1280 пикселей
Высота : 678 пикселей
Соотношение сторон : 1,888
Режим частоты кадров : Постоянный
Частота кадров : 23,976 (24000/1001) кадра/сек
Цветовое пространство : YUV
Субдискретизация насыщенности : 4:2:0
Битовая глубина : 8 бит
Тип развёртки : Прогрессивная
Бит/(Пиксели*Кадры) : 0.336
Размер потока : 4,66 Гбайт (78%)
Заголовок : The.Inspector.Wear.Skirts.1988.BDRip.720p_by_vedigo
Библиотека кодирования : x264 core 148 r2744 b97ae06
Настройки программы : cabac=1 / ref=9 / deblock=1:-3:-3 / analyse=0x3:0x133 / me=umh / subme=11 / psy=1 / psy_rd=1.00:0.10 / mixed_ref=1 / me_range=48 / chroma_me=1 / trellis=2 / 8x8dct=1 / cqm=0 / deadzone=21,11 / fast_pskip=0 / chroma_qp_offset=-3 / threads=12 / lookahead_threads=2 / sliced_threads=0 / nr=0 / decimate=1 / interlaced=0 / bluray_compat=0 / constrained_intra=0 / bframes=8 / b_pyramid=2 / b_adapt=2 / b_bias=0 / direct=3 / weightb=1 / open_gop=0 / weightp=2 / keyint=250 / keyint_min=23 / scenecut=40 / intra_refresh=0 / rc_lookahead=40 / rc=2pass / mbtree=0 / bitrate=7000 / ratetol=1.0 / qcomp=0.60 / qpmin=0 / qpmax=69 / qpstep=4 / cplxblur=20.0 / qblur=0.5 / vbv_maxrate=50000 / vbv_bufsize=62500 / nal_hrd=none / filler=0 / ip_ratio=1.40 / pb_ratio=1.30 / aq=1:0.80
Default : Да
Forced : Нет
Аудио #1
Идентификатор : 2
Формат : AC-3
Формат/Информация : Audio Coding 3
Расширение режима : CM (complete main)
Параметр Endianness формата : Big
Идентификатор кодека : A_AC3
Продолжительность : 1 ч. 35 м.
Вид битрейта : Постоянный
Битрейт : 640 Кбит/сек
Каналы : 6 каналов
Расположение каналов : Front: L C R, Side: L R, LFE
Частота : 48,0 КГц
Частота кадров : 31,250 кадров/сек (1536 spf)
Битовая глубина : 16 бит
Метод сжатия : С потерями
Размер потока : 436 Мбайт (7%)
Заголовок : AVO @ А. Дольский
Язык : Russian
Default : Да
Forced : Нет
Аудио #2
Идентификатор : 3
Формат : AC-3
Формат/Информация : Audio Coding 3
Расширение режима : CM (complete main)
Параметр Endianness формата : Big
Идентификатор кодека : A_AC3
Продолжительность : 1 ч. 35 м.
Вид битрейта : Постоянный
Битрейт : 640 Кбит/сек
Каналы : 6 каналов
Расположение каналов : Front: L C R, Side: L R, LFE
Частота : 48,0 КГц
Частота кадров : 31,250 кадров/сек (1536 spf)
Битовая глубина : 16 бит
Метод сжатия : С потерями
Размер потока : 435 Мбайт (7%)
Заголовок : Cantonese
Язык : Chinese
Default : Нет
Forced : Нет
Аудио #3
Идентификатор : 4
Формат : AC-3
Формат/Информация : Audio Coding 3
Расширение режима : CM (complete main)
Параметр Endianness формата : Big
Идентификатор кодека : A_AC3
Продолжительность : 1 ч. 35 м.
Вид битрейта : Постоянный
Битрейт : 640 Кбит/сек
Каналы : 6 каналов
Расположение каналов : Front: L C R, Side: L R, LFE
Частота : 48,0 КГц
Частота кадров : 31,250 кадров/сек (1536 spf)
Битовая глубина : 16 бит
Метод сжатия : С потерями
Размер потока : 435 Мбайт (7%)
Заголовок : Mandarin
Язык : Chinese
Default : Нет
Forced : Нет
Текст
Идентификатор : 5
Формат : UTF-8
Идентификатор кодека : S_TEXT/UTF8
Идентификатор кодека/Информация : UTF-8 Plain Text
Продолжительность : 1 ч. 32 м.
Битрейт : 48 бит/сек
Count of elements : 1364
Размер потока : 32,7 Кбайт (0%)
Заголовок : Subtitle eng
Язык : English
Default : Нет
Forced : Нет
Меню
00:00:00.000 : en:00:00:00.000
00:05:53.186 : en:00:05:53.186
00:10:29.671 : en:00:10:29.671
00:15:21.420 : en:00:15:21.420
00:19:32.922 : en:00:19:32.922
00:24:29.843 : en:00:24:29.843
00:27:54.715 : en:00:27:54.715
00:31:13.330 : en:00:31:13.330
00:37:13.731 : en:00:37:13.731
00:41:48.840 : en:00:41:48.840
00:46:42.425 : en:00:46:42.425
00:51:45.019 : en:00:51:45.019
00:56:38.020 : en:00:56:38.020
01:01:23.096 : en:01:01:23.096
01:09:48.893 : en:01:09:48.893
01:14:31.926 : en:01:14:31.926
01:19:58.043 : en:01:19:58.043
01:21:34.723 : en:01:21:34.723
01:25:45.223 : en:01:25:45.223
01:29:53.555 : en:01:29:53.555

Скриншоты


Сравнение с исходником

Сравнение с исходником:




x264 info

x264 [info]: using SAR=1/1
x264 [info]: using cpu capabilities: MMX2 SSE2Fast SSSE3 SSE4.2 AVX
x264 [info]: profile High, level 4.1
x264 [info]: frame I:1168 Avg QP:14.77 size:125695
x264 [info]: frame P:33425 Avg QP:16.95 size: 63569
x264 [info]: frame B:102413 Avg QP:18.97 size: 26631
x264 [info]: consecutive B-frames: 3.4% 4.1% 11.5% 25.4% 14.2% 37.8% 2.5% 0.7% 0.5%
x264 [info]: mb I I16..4: 2.1% 85.3% 12.6%
x264 [info]: mb P I16..4: 0.6% 35.5% 1.6% P16..4: 20.5% 28.3% 11.8% 1.2% 0.0% skip: 0.4%
x264 [info]: mb B I16..4: 0.1% 4.6% 0.2% B16..8: 31.4% 29.0% 6.1% direct:13.1% skip:15.5% L0:40.0% L1:35.8% BI:24.2%
x264 [info]: 8x8 transform intra:93.6% inter:61.9%
x264 [info]: direct mvs spatial:98.4% temporal:1.6%
x264 [info]: coded y,uvDC,uvAC intra: 96.3% 98.4% 93.1% inter: 49.8% 51.3% 18.7%
x264 [info]: i16 v,h,dc,p: 56% 8% 4% 32%
x264 [info]: i8 v,h,dc,ddl,ddr,vr,hd,vl,hu: 11% 8% 7% 9% 13% 14% 11% 14% 13%
x264 [info]: i4 v,h,dc,ddl,ddr,vr,hd,vl,hu: 16% 8% 3% 8% 15% 17% 12% 11% 10%
x264 [info]: i8c dc,h,v,p: 54% 16% 15% 16%
x264 [info]: Weighted P-Frames: Y:5.9% UV:1.6%
x264 [info]: ref P L0: 40.2% 11.8% 18.2% 7.1% 7.0% 4.6% 4.8% 2.7% 3.2% 0.3% 0.0%
x264 [info]: ref B L0: 84.6% 7.0% 2.9% 1.9% 1.3% 1.2% 0.8% 0.4%
x264 [info]: ref B L1: 98.5% 1.5%
x264 [info]: kb/s:6998.58
x264 [total]: encoded 137006 frames, 7.05 fps, 6998.58 kb/s
Вы не можете начинать темы
Вы не можете отвечать на сообщения
Вы не можете редактировать свои сообщения
Вы не можете удалять свои сообщения
Вы не можете голосовать в опросах
Вы не можете прикреплять файлы к сообщениям
Вы можете скачивать файлы
!ВНИМАНИЕ!

Сайт не предоставляет электронные версии произведений, а занимается лишь коллекционированием и каталогизацией ссылок, присылаемых и публикуемых на форуме нашими читателями. Если вы являетесь правообладателем какого-либо представленного материала и не желаете, чтобы ссылка на него находилась в нашем каталоге, свяжитесь с нами, и мы незамедлительно удалим ее. Файлы для обмена на трекере предоставлены пользователями сайта, и администрация не несет ответственности за их содержание. Просьба не заливать файлы, защищенные авторскими правами, а также файлы нелегального содержания!

Искали программы, игры, дополнения, музыка mp3, аниме, аудио книги, журналы? Добро пожаловать на свободный торрент трекер B-Tor.Ru, у нас можно скачать бесплатно, без смс и регистрации и прочих ограничений лучшие, отборные сборки программ, игр. Скачать торрентом не составит труда даже не опытному пользователю. Раздачи ежедневно обновляются, только лучшие и качественные раздачи, подробные описания и скриншоты. Огромная коллекция программ для работы со звуком, графикой, дизайном, а так же множество плагинов и инструментов к ним с подробной инструкцией и рекомендациями. Прошивки для навигаторов, карты. Разнообразные игры, для Windows, Linux. В коллекцие есть и старые игры любых жанров, Rpg, Action, Shooter, strategy Множество дополнений, модификаций, сценариев для популярных игр в жанре экш, рпг, гонки, стратегии, логические игры. Множество аддонов и сценариев для Microsoft Flight Simulator Большая коллекция книг, учебников. Если нет возможности купить печатное издание - смело скачивайте цифровую версию книги или, быть может, журнала. Не любите читать - можно загрузить бесплатно аудикнигу. Для веб дизайнеров и программистов так же найдется множество специализированного софта, таких как: редакторы с подсветкой, среды программирования, компоненты, системы управления базами данных, разнообразные скрипты и шаблоны. Не так давно у нас появился материал для автолюбителей и владельцев мото - оригинальные и неоригинальные каталоги запчастей, книги и журналы по ремонту и обслуживанию, видеоуроки, статьи по чип тюнингу, прошивкам. Процедура получения контента элементарная, достаточно просто скачать торрент файл и добавить его в загрузку в вашем торрент клиенте. Если у вас нет специального торрент клиента, вы можете его скачать у нас.