Теория большого взрыва / The Big Bang Theory / Сезон: 3 / Серии: 1-23 из 23 (Чак Лорри / Chuck Lorre) [2009-2010, США, комедия, BDRip-AVC] VO (Кураж-Бамбей) + Original + Subs (Rus, Eng) 

Цитировать
--Теория большого взрыва / The Big Bang Theory«Smart Is The New Sexy»-- -- Страна: США
Жанр: комедия
Год выхода: 2009-2010
Продолжительность: 23 x 22 мин.
Перевод: профессиональный (одноголосый, закадровый) (Кураж-Бамбей)
Режиссер: Чак Лорри / Chuck Lorre
В ролях: Джонни Галэки, Джим Парсонс, Кейли Куоко-Суитинг, Саймон Хелберг, Кунал Нэйэр, Мелисса Рауш, Майем Биалик
Описание: Два блестящих физика, Леонард и Шелдон, «великие умы», которые понимают, как «работает Вселенная». Но их гениальность ничуть не помогает им общаться с людьми, особенно с женщинами. Всё начинает меняться, когда напротив них поселяется красавица Пенни.
Когда Леонард и Шелдон встречают Пенни, Леонард сразу же начинает интересоваться ею. Он видит в общении с Пенни огромную перспективу, вплоть до любви, однако Шелдон понимает, что мечтам его друга не суждено сбыться.
Стоит также отметить пару странных друзей этих физиков: Воловиц, который любит употреблять фразы на разных языках, включая русский, и Раджеш Кутрапали, теряющий дар речи при виде женщин.

Релиз от -
Автор: Gellard
Сэмпл: скачать
Качество: BDRip-AVC (источник: Flest_rus / Blu-Ray Remux / 1080p)
Формат: MKV
Видео: 1024x578 (16:9), 23.976 fps, x264, ~2300 kbps avg, 0.162 bit/pixel
Аудио #1: (VO) 48 kHz, AC3 Dolby Digital, 2/0 (L,R) ch, 192.00 kbps avg
Аудио #2: (ENG) 48 kHz, AC3 Dolby Digital, 3/2 (L,C,R,l,r) + LFE ch, 384.00 kbps avg
Субтитры: русские, английские (2 вида)--

Скриншоты

Список серий

  • The Big Bang Theory S03E01: Флуктуация электрооткрывашки / The Electric Can Opener Fluctuation (2009)
  • The Big Bang Theory S03E02: Предположение Джимини / The Jiminy Conjecture (2009)
  • The Big Bang Theory S03E03: Отклонение Готовица / The Gothowitz Deviation (2009)
  • The Big Bang Theory S03E04: Пиратское решение / The Pirate Solution (2009)
  • The Big Bang Theory S03E05: Следствие жуткой обертки / The Creepy Candy Coating Corollary (2009)
  • The Big Bang Theory S03E06: Завихрение Кукурузника / The Cornhusker Vortex (2009)
  • The Big Bang Theory S03E07: Усиление гитариста / The Guitarist Amplification (2009)
  • The Big Bang Theory S03E08: Дефицит самоклеющихся утят / The Adhesive Duck Deficiency (2009)
  • The Big Bang Theory S03E09: Формулировка мести / The Vengeance Formulation (2009)
  • The Big Bang Theory S03E10: Эксперимент с гориллой / The Gorilla Experiment (2009)
  • The Big Bang Theory S03E11: Материнская конгруэнтность / The Maternal Congruence (2009)
  • The Big Bang Theory S03E12: Экстрасенсорное завихрение / The Psychic Vortex (2010)
  • The Big Bang Theory S03E13: Реакция Бозмена / The Bozeman Reaction (2010)
  • The Big Bang Theory S03E14: Аппроксимация Эйнштейна / The Einstein Approximation (2010)
  • The Big Bang Theory S03E15: Большое адронное столкновение / The Large Hadron Collision (2010)
  • The Big Bang Theory S03E16: Приобретение эксельсиора / The Excelsior Acquisition (2010)
  • The Big Bang Theory S03E17: Фрагментация прелести / The Precious Fragmentation (2010)
  • The Big Bang Theory S03E18: Брючная альтернатива / The Pants Alternative (2010)
  • The Big Bang Theory S03E19: Рекуррентность Уитона / The Wheaton Recurrence (2010)
  • The Big Bang Theory S03E20: Катализатор спагетти / The Spaghetti Catalyst (2010)
  • The Big Bang Theory S03E21: Плимптоновская стимуляция / The Plimpton Stimulation (2010)
  • The Big Bang Theory S03E22: Лестничная реализация / The Staircase Implementation (2010)
  • The Big Bang Theory S03E23: Лунное возбуждение / The Lunar Excitation (2010)
Перевод названий собственный.

MediaInfo

General
Unique ID                                : 241975516121302444571133196277356255818 (0xB60ACA0B0535FAB98DA67DA00CC55A4A)
Complete name                            : The.Big.Bang.Theory.S03E01.The.Electric.Can.Opener.Fluctuation.mkv
Format                                   : Matroska
Format version                           : Version 4 / Version 2
File size                                : 444 MiB
Duration                                 : 21mn 35s
Overall bit rate                         : 2 877 Kbps
Encoded date                             : UTC 2015-07-06 18:23:47
Writing application                      : mkvmerge v7.0.0 ('Where We Going') 32bit built on Jun  9 2014 15:08:34
Writing library                          : libebml v1.3.0 + libmatroska v1.4.1
DURATION                                 : 00:21:31.998000000
NUMBER_OF_FRAMES                         : 342
NUMBER_OF_BYTES                          : 14159
_STATISTICS_WRITING_APP                  : mkvmerge v7.0.0 ('Where We Going') 32bit built on Jun  9 2014 15:08:34
_STATISTICS_WRITING_DATE_UTC             : 2015-07-06 18:23:47
_STATISTICS_TAGS                         : BPS DURATION NUMBER_OF_FRAMES NUMBER_OF_BYTES
Video
ID                                       : 1
Format                                   : AVC
Format/Info                              : Advanced Video Codec
Format profile                           : High@L4.1
Format settings, CABAC                   : Yes
Format settings, ReFrames                : 12 frames
Codec ID                                 : V_MPEG4/ISO/AVC
Duration                                 : 21mn 35s
Bit rate                                 : 2 300 Kbps
Width                                    : 1 024 pixels
Height                                   : 578 pixels
Display aspect ratio                     : 16:9
Frame rate mode                          : Constant
Frame rate                               : 23.976 fps
Color space                              : YUV
Chroma subsampling                       : 4:2:0
Bit depth                                : 8 bits
Scan type                                : Progressive
Bits/(Pixel*Frame)                       : 0.162
Stream size                              : 347 MiB (78%)
Title                                    : The Big Bang Theory S03E01: Флуктуация электрооткрывашки / The Electric Can Opener Fluctuation (2009) BDRip-AVC by Gellard
Writing library                          : x264 core 146 r2538 121396c
Encoding settings                        : cabac=1 / ref=12 / deblock=1:-3:-3 / analyse=0x3:0x113 / me=umh / subme=11 / psy=1 / psy_rd=1.00:0.30 / mixed_ref=1 / me_range=32 / chroma_me=1 / trellis=2 / 8x8dct=1 / cqm=0 / deadzone=21,11 / fast_pskip=1 / chroma_qp_offset=-6 / threads=9 / lookahead_threads=1 / sliced_threads=0 / nr=0 / decimate=1 / interlaced=0 / bluray_compat=0 / constrained_intra=0 / bframes=9 / b_pyramid=2 / b_adapt=2 / b_bias=0 / direct=1 / weightb=1 / open_gop=0 / weightp=2 / keyint=240 / keyint_min=23 / scenecut=40 / intra_refresh=0 / rc_lookahead=40 / rc=2pass / mbtree=1 / bitrate=2300 / ratetol=1.0 / qcomp=0.80 / qpmin=0 / qpmax=69 / qpstep=4 / cplxblur=20.0 / qblur=0.5 / vbv_maxrate=50000 / vbv_bufsize=62500 / nal_hrd=none / filler=0 / ip_ratio=1.40 / aq=1:0.50
Language                                 : English
Default                                  : Yes
Forced                                   : No
DURATION                                 : 00:21:35.253000000
NUMBER_OF_FRAMES                         : 31055
NUMBER_OF_BYTES                          : 372192411
_STATISTICS_WRITING_APP                  : mkvmerge v7.0.0 ('Where We Going') 32bit built on Jun  9 2014 15:08:34
_STATISTICS_WRITING_DATE_UTC             : 2015-07-06 18:23:47
_STATISTICS_TAGS                         : BPS DURATION NUMBER_OF_FRAMES NUMBER_OF_BYTES
Audio #1
ID                                       : 2
Format                                   : AC-3
Format/Info                              : Audio Coding 3
Mode extension                           : CM (complete main)
Format settings, Endianness              : Big
Codec ID                                 : A_AC3
Duration                                 : 21mn 35s
Bit rate mode                            : Constant
Bit rate                                 : 192 Kbps
Channel count                            : 2 channels
Channel positions                        : Front: L R
Sampling rate                            : 48.0 KHz
Bit depth                                : 16 bits
Compression mode                         : Lossy
Stream size                              : 29.6 MiB (7%)
Title                                    : Одноголосый (Кураж-Бамбей) AC3 2.0 @ 192 kbps
Language                                 : Russian
Default                                  : Yes
Forced                                   : No
Audio #2
ID                                       : 3
Format                                   : AC-3
Format/Info                              : Audio Coding 3
Mode extension                           : CM (complete main)
Format settings, Endianness              : Big
Codec ID                                 : A_AC3
Duration                                 : 21mn 35s
Bit rate mode                            : Constant
Bit rate                                 : 384 Kbps
Channel count                            : 6 channels
Channel positions                        : Front: L C R, Side: L R, LFE
Sampling rate                            : 48.0 KHz
Bit depth                                : 16 bits
Compression mode                         : Lossy
Stream size                              : 59.3 MiB (13%)
Title                                    : Оригинал AC3 5.1 @ 384 kbps
Language                                 : English
Default                                  : No
Forced                                   : No
Text #1
ID                                       : 4
Format                                   : UTF-8
Codec ID                                 : S_TEXT/UTF8
Codec ID/Info                            : UTF-8 Plain Text
Title                                    : Полные
Language                                 : Russian
Default                                  : No
Forced                                   : No
Text #2
ID                                       : 5
Format                                   : UTF-8
Codec ID                                 : S_TEXT/UTF8
Codec ID/Info                            : UTF-8 Plain Text
Title                                    : Full
Language                                 : English
Default                                  : No
Forced                                   : No
Text #3
ID                                       : 6
Format                                   : UTF-8
Codec ID                                 : S_TEXT/UTF8
Codec ID/Info                            : UTF-8 Plain Text
Title                                    : Full (SDH)
Language                                 : English
Default                                  : No
Forced                                   : No
Menu
00:00:00.000                             : en:00:00:00.000
00:02:41.244                             : en:00:02:41.244
00:13:04.617                             : en:00:13:04.617
00:20:26.225                             : en:00:20:26.225
00:21:08.601                             : en:00:21:08.601
Вы не можете начинать темы
Вы не можете отвечать на сообщения
Вы не можете редактировать свои сообщения
Вы не можете удалять свои сообщения
Вы не можете голосовать в опросах
Вы не можете прикреплять файлы к сообщениям
Вы можете скачивать файлы
!ВНИМАНИЕ!

Сайт не предоставляет электронные версии произведений, а занимается лишь коллекционированием и каталогизацией ссылок, присылаемых и публикуемых на форуме нашими читателями. Если вы являетесь правообладателем какого-либо представленного материала и не желаете, чтобы ссылка на него находилась в нашем каталоге, свяжитесь с нами, и мы незамедлительно удалим ее. Файлы для обмена на трекере предоставлены пользователями сайта, и администрация не несет ответственности за их содержание. Просьба не заливать файлы, защищенные авторскими правами, а также файлы нелегального содержания!

Искали программы, игры, дополнения, музыка mp3, аниме, аудио книги, журналы? Добро пожаловать на свободный торрент трекер B-Tor.Ru, у нас можно скачать бесплатно, без смс и регистрации и прочих ограничений лучшие, отборные сборки программ, игр. Скачать торрентом не составит труда даже не опытному пользователю. Раздачи ежедневно обновляются, только лучшие и качественные раздачи, подробные описания и скриншоты. Огромная коллекция программ для работы со звуком, графикой, дизайном, а так же множество плагинов и инструментов к ним с подробной инструкцией и рекомендациями. Прошивки для навигаторов, карты. Разнообразные игры, для Windows, Linux. В коллекцие есть и старые игры любых жанров, Rpg, Action, Shooter, strategy Множество дополнений, модификаций, сценариев для популярных игр в жанре экш, рпг, гонки, стратегии, логические игры. Множество аддонов и сценариев для Microsoft Flight Simulator Большая коллекция книг, учебников. Если нет возможности купить печатное издание - смело скачивайте цифровую версию книги или, быть может, журнала. Не любите читать - можно загрузить бесплатно аудикнигу. Для веб дизайнеров и программистов так же найдется множество специализированного софта, таких как: редакторы с подсветкой, среды программирования, компоненты, системы управления базами данных, разнообразные скрипты и шаблоны. Не так давно у нас появился материал для автолюбителей и владельцев мото - оригинальные и неоригинальные каталоги запчастей, книги и журналы по ремонту и обслуживанию, видеоуроки, статьи по чип тюнингу, прошивкам. Процедура получения контента элементарная, достаточно просто скачать торрент файл и добавить его в загрузку в вашем торрент клиенте. Если у вас нет специального торрент клиента, вы можете его скачать у нас.