Как я встретил вашу маму / How I Met Your Mother / Сезон: 2 / Серии: 01-22 (22) [2006-2007, США, DVDRip AVC] (MVO MTV/студия "Кравец" | Original) 

Цитировать
-Как я встретил вашу маму / How I Met Your MotherСезон 2, Серии 01-22-- Год выпуска: 2006-2007
Страна: США
Жанр: комедия
Продолжительность: ~ 00:20:00 x 22
Перевод: Профессиональный многоголосый закадровый [Студия "Кравец" по заказу МТВ]
Субтитры: отсутствуют-Режиссёр: Картер Бейс
В ролях: Джош Рэднор, Джейсон Сегел, Коби Смалдерс, Нил Патрик Хэррис, Эллисон Хэнниган и др.-Описание: How I met your mother - комедия про Теда (Джош Рэднор) и про то, как он влюбился. Все неприятности начинаются с того, что лучший друг Теда, Маршалл (Джейсон Сегел) вдруг неожиданно сообщил, что он хочет сделать предложение своей давней подруге, Лили (Эллисон Хэнниган), воспитательнице детского сада. К тому времени Тед понимает, что ему нужно прилагать больше усилий, если он действительно надеется найти свою настоящую любовь. Помогает ему в этих поисках его друг Барни (Нил Патрик Хэррис), убежденный холостяк, вечно со своим, иногда чересчур, мнением на все происходящее, со склонностью к костюмам и верным способом познакомиться с девушками. Когда Тед встречает Робин (Коби Смалдерс), он решает, что это любовь с первого взгляда, но у судьбы в запасе есть кое-что еще. Сериал представлен в форме повествования в будущем.-[ Все раздачи сериала ] | [ Сэмпл ]-Качество: DVDRip AVC
Формат: MKV
Видео кодек: x264
Аудио кодек: AC3
Видео: x264, 720x576@1027x576 (16:9), 25 fps, ~ 1 800 Kbps, 0.174 bit/pixel
Аудио 1: AC3, 48 kHz, 2 ch, 192 kbps [Русский, студия "Кравец"]
Аудио 2: AC3, 48 kHz, 6 ch, 448 kbps [Английский]
-

MI

General
Unique ID : 193126902513298382062889761488131176682 (0x914AE3723A0B0402A66E262489D9B8EA)
Complete name : How.I.Met.Your.Mother.S02.DVDRiP.AVC.x264.Rus.MVO.Eng\How.I.Met.Your.Mother.S02E01.DVDRiP.AVC.x264.Rus.MVO.Eng.mkv
Format : Matroska
Format version : Version 2
File size : 358 MiB
Duration : 20mn 29s
Overall bit rate : 2 441 Kbps
Movie name : How I Met Your Mother - Season 02 Episode 01 - Where Were We? / На чём мы остановились? [Rus MTV | Eng]
Encoded date : UTC 2012-06-02 17:31:59
Writing application : mkvmerge v5.2.1 ('A Far Off Place') built on Jan 2 2012 23:21:10
Writing library : libebml v1.2.3 + libmatroska v1.3.0
Video
ID : 1
Format : AVC
Format/Info : Advanced Video Codec
Format profile : High@L3.1
Format settings, CABAC : Yes
Format settings, ReFrames : 6 frames
Codec ID : V_MPEG4/ISO/AVC
Duration : 20mn 29s
Bit rate : 1 800 Kbps
Width : 720 pixels
Height : 576 pixels
Display aspect ratio : 16:9
Frame rate : 25.000 fps
Standard : PAL
Color space : YUV
Chroma subsampling : 4:2:0
Bit depth : 8 bits
Scan type : Progressive
Bits/(Pixel*Frame) : 0.174
Stream size : 257 MiB (72%)
Title : How I Met Your Mother S02E01 Where Were We?
Writing library : x264 core 79 r1347 5ddd61b
Encoding settings : cabac=1 / ref=6 / deblock=1:-2:-1 / analyse=0x3:0x133 / me=umh / subme=9 / psy=1 / psy_rd=1.0:0.0 / mixed_ref=1 / me_range=64 / chroma_me=1 / trellis=2 / 8x8dct=1 / cqm=0 / deadzone=21,11 / chroma_qp_offset=-2 / threads=3 / nr=0 / decimate=0 / mbaff=0 / constrained_intra=0 / bframes=6 / b_pyramid=0 / b_adapt=2 / b_bias=0 / direct=3 / wpredb=1 / wpredp=2 / keyint=250 / keyint_min=25 / scenecut=40 / rc_lookahead=40 / rc=2pass / mbtree=1 / bitrate=1800 / ratetol=1.0 / qcomp=0.60 / qpmin=10 / qpmax=51 / qpstep=4 / cplxblur=20.0 / qblur=0.5 / ip_ratio=1.40 / aq=1:1.00
Language : English
Default : Yes
Forced : No
Color primaries : BT.601-6 525, BT.1358 525, BT.1700 NTSC, SMPTE 170M
Transfer characteristics : BT.709-5, BT.1361
Matrix coefficients : BT.601-6 525, BT.1358 525, BT.1700 NTSC, SMPTE 170M
Audio #1
ID : 2
Format : AC-3
Format/Info : Audio Coding 3
Mode extension : CM (complete main)
Codec ID : A_AC3
Duration : 20mn 29s
Bit rate mode : Constant
Bit rate : 192 Kbps
Channel(s) : 2 channels
Channel positions : Front: L R
Sampling rate : 48.0 KHz
Bit depth : 16 bits
Compression mode : Lossy
Stream size : 28.1 MiB (8%)
Title : MVO MTV (студия "Кравец") @ AC3 2.0 192 kbps
Language : Russian
Default : Yes
Forced : No
Audio #2
ID : 3
Format : AC-3
Format/Info : Audio Coding 3
Mode extension : CM (complete main)
Codec ID : A_AC3
Duration : 20mn 29s
Bit rate mode : Constant
Bit rate : 448 Kbps
Channel(s) : 6 channels
Channel positions : Front: L C R, Side: L R, LFE
Sampling rate : 48.0 KHz
Bit depth : 16 bits
Compression mode : Lossy
Stream size : 65.7 MiB (18%)
Title : Original @ AC3 5.1 448 kbps
Language : English
Default : No
Forced : No
-

Скриншоты

-

Внимание! Раздача ведётся путём добавления новых серий

Внимание! Раздача ведётся путём добавления новых серий; при каждом добавлении создётся новый торрент. Чтобы
начать докачку новой серии, пользователям необходимо сделать следующее:
  • Остановить скачивание.
  • Удалить старый торрент у себя из клиента (старые серии удалять не надо).
  • Скачать новый торрент и запустить его у себя в клиенте вместо старого, при этом указать клиенту путь в старую папку куда и
    должно происходить скачивание новых серий.
Ваш клиент при этом должен произвести хеширование (проверку) старой папки (если не производит сам - помогите ему сделать
это), и будет докачивать только те серии которых у вас ещё нет. Старые серии при этом не удаляются, а продолжают раздаваться!
Eсли вы уже удалили старые серии, то предотвратить повторную закачку старых серий можно, отжав галочку в соответсвующих местах при
запуске нового торрента. По возможности, желательно не удалять старые серии как можно дольше чтобы релизёр не столько продолжал
раздавать старые серии, а смог сконцентрироваться на новых.
-Торрент обновлен. Добавлена 22 серия-
Вы не можете начинать темы
Вы не можете отвечать на сообщения
Вы не можете редактировать свои сообщения
Вы не можете удалять свои сообщения
Вы не можете голосовать в опросах
Вы не можете прикреплять файлы к сообщениям
Вы можете скачивать файлы
!ВНИМАНИЕ!

Сайт не предоставляет электронные версии произведений, а занимается лишь коллекционированием и каталогизацией ссылок, присылаемых и публикуемых на форуме нашими читателями. Если вы являетесь правообладателем какого-либо представленного материала и не желаете, чтобы ссылка на него находилась в нашем каталоге, свяжитесь с нами, и мы незамедлительно удалим ее. Файлы для обмена на трекере предоставлены пользователями сайта, и администрация не несет ответственности за их содержание. Просьба не заливать файлы, защищенные авторскими правами, а также файлы нелегального содержания!

Искали программы, игры, дополнения, музыка mp3, аниме, аудио книги, журналы? Добро пожаловать на свободный торрент трекер B-Tor.Ru, у нас можно скачать бесплатно, без смс и регистрации и прочих ограничений лучшие, отборные сборки программ, игр. Скачать торрентом не составит труда даже не опытному пользователю. Раздачи ежедневно обновляются, только лучшие и качественные раздачи, подробные описания и скриншоты. Огромная коллекция программ для работы со звуком, графикой, дизайном, а так же множество плагинов и инструментов к ним с подробной инструкцией и рекомендациями. Прошивки для навигаторов, карты. Разнообразные игры, для Windows, Linux. В коллекцие есть и старые игры любых жанров, Rpg, Action, Shooter, strategy Множество дополнений, модификаций, сценариев для популярных игр в жанре экш, рпг, гонки, стратегии, логические игры. Множество аддонов и сценариев для Microsoft Flight Simulator Большая коллекция книг, учебников. Если нет возможности купить печатное издание - смело скачивайте цифровую версию книги или, быть может, журнала. Не любите читать - можно загрузить бесплатно аудикнигу. Для веб дизайнеров и программистов так же найдется множество специализированного софта, таких как: редакторы с подсветкой, среды программирования, компоненты, системы управления базами данных, разнообразные скрипты и шаблоны. Не так давно у нас появился материал для автолюбителей и владельцев мото - оригинальные и неоригинальные каталоги запчастей, книги и журналы по ремонту и обслуживанию, видеоуроки, статьи по чип тюнингу, прошивкам. Процедура получения контента элементарная, достаточно просто скачать торрент файл и добавить его в загрузку в вашем торрент клиенте. Если у вас нет специального торрент клиента, вы можете его скачать у нас.