Теория Большого взрыва / The Big Bang Theory / Сезон: 1 / Серии: 1-17 (17) (Джеймс Берроуз, Марк Сендровски) [2007, США, комедия, WEB-DLRip-AVC] MVO СТС/Новамедиа+ + Original + rus sub 

Цитировать
Теория Большого взрыва / The Big Bang Theory / 1 Сезон / Web-DL-AVC / СТС/Новамедиа
Год выпуска: 2007
Страна: США
Жанр: комедия
Продолжительность: 00:22:00
Перевод: Профессиональный многоголосный закадровый - СТС/Новамедиа
Субтитры: русские, английские
Режиссёр: Джеймс Берроуз, Марк Сендровски
В ролях: Джонни Галекки, Джим Парсонс, Кейли Куоко, Саймон Хельберг, Кунал Найяр
Описание: Два блестящих физика, Леонард и Шелдон, «великие умы», которые понимают как «работает вселенная». Но их гениальность ничуть не помогает им общаться с людьми, особенно с женщинами. Всё начинает меняться, когда напротив них поселяется красавица Пенни.
Когда Леонард и Шелдон встречают Пенни, Леонард сразу же начинает интересоваться ею. Он видит в общении с Пенни огромную перспективу…, вплоть до любви, однако Шелдон понимает, что мечтам его друга не суждено сбыться.
Стоит также отметить пару странных друзей этих физиков: Говард Воловиц, который любит употреблять фразы на разных языках, включая русский и Раждеш Кутрапали, теряющий дар речи при виде женщин
Все спасибо сюда - http://rutracker.org/forum/viewtopic.php?t=3829460
Ссылка на предыдущие и альтернативные раздачи: http://rutracker.org/forum/search.php?f=507&nm=%D2%E5%EE%F0%E8%FF+%C1%EE%EB%F...%E3%EE+%E2%E7%F0
Сэмпл: http://narod.ru/disk/36841134001/0102%20-%20The%20Big%20Bran%20Hypothesis%20-%20Sample.mkv.html
Качество: WEB-DLRip
Формат: MKV
Видео кодек: h.264
Аудио кодек: AC3
Видео: 720 Х 400 / 23.976 fps / ~1500 kbp/s / ~0.21 bt/px
Аудио 2: AC3 2.0 / 48 kHz / 192 kbp/s - СТС/Новамедиа
Аудио 4: AC3 5.1 / 48 kHz / 384 kbp/s (1 серия - AAC 2.0 / 48 kHz / ~160 kbp/s) - Английская

Серии

MI

General
Unique ID : 212188803935091760482847837675231047988 (0x9FA213BF33337DD89A0412D80B9EF134)
Complete name : D:\The Big Bang Theory 1s Web-DL-AVC CTC\0102 - The Big Bran Hypothesis.mkv
Format : Matroska
Format version : Version 2
File size : 308 MiB
Duration : 21mn 6s
Overall bit rate : 2 037 Kbps
Movie name : The Big Bang Theory - 0102 - The Big Bran Hypothesis / Релиз - D2T/"Криволапый ювелир"
Encoded date : UTC 2012-01-07 18:08:57
Writing application : mkvmerge v4.0.0 ('The Stars were mine') сборка от Jun 6 2010 16:18:42
Writing library : libebml v1.0.0 + libmatroska v1.0.0
Video
ID : 1
Format : AVC
Format/Info : Advanced Video Codec
Format profile : High@L3.0
Format settings, CABAC : Yes
Format settings, ReFrames : 4 frames
Codec ID : V_MPEG4/ISO/AVC
Duration : 21mn 6s
Bit rate : 1 421 Kbps
Width : 720 pixels
Height : 400 pixels
Display aspect ratio : 16:9
Frame rate : 23.976 fps
Color space : YUV
Chroma subsampling : 4:2:0
Bit depth : 8 bits
Scan type : Progressive
Bits/(Pixel*Frame) : 0.206
Stream size : 214 MiB (70%)
Writing library : x264 core 116 r2074 2641b9e
Encoding settings : cabac=1 / ref=4 / deblock=1:0:0 / analyse=0x3:0x113 / me=tesa / subme=9 / psy=1 / psy_rd=1.00:0.00 / mixed_ref=1 / me_range=16 / chroma_me=1 / trellis=2 / 8x8dct=1 / cqm=0 / deadzone=21,11 / fast_pskip=1 / chroma_qp_offset=-2 / threads=6 / sliced_threads=0 / nr=0 / decimate=1 / interlaced=0 / bluray_compat=0 / constrained_intra=0 / bframes=4 / b_pyramid=0 / b_adapt=2 / b_bias=0 / direct=3 / weightb=0 / open_gop=0 / weightp=2 / keyint=150 / keyint_min=1 / scenecut=33 / intra_refresh=0 / rc=cqp / mbtree=0 / qp=19 / ip_ratio=1.40 / pb_ratio=1.30 / aq=0
Language : English
Audio #1
ID : 2
Format : AC-3
Format/Info : Audio Coding 3
Mode extension : CM (complete main)
Codec ID : A_AC3
Duration : 21mn 6s
Bit rate mode : Constant
Bit rate : 192 Kbps
Channel(s) : 2 channels
Channel positions : Front: L R
Sampling rate : 48.0 KHz
Bit depth : 16 bits
Compression mode : Lossy
Stream size : 29.0 MiB (9%)
Title : СТС/Новамедиа
Language : Russian
Audio #2
ID : 3
Format : AC-3
Format/Info : Audio Coding 3
Mode extension : CM (complete main)
Codec ID : A_AC3
Duration : 21mn 6s
Bit rate mode : Constant
Bit rate : 384 Kbps
Channel(s) : 6 channels
Channel positions : Front: L C R, Side: L R, LFE
Sampling rate : 48.0 KHz
Bit depth : 16 bits
Compression mode : Lossy
Stream size : 58.0 MiB (19%)
Language : English
Text #1
ID : 4
Format : UTF-8
Codec ID : S_TEXT/UTF8
Codec ID/Info : UTF-8 Plain Text
Language : Russian
Text #2
ID : 5
Format : UTF-8
Codec ID : S_TEXT/UTF8
Codec ID/Info : UTF-8 Plain Text
Language : English

Скриншоты

Релиз

"Криволапый ювелир"

Теория Большого взрыва / The Big Bang Theory

НоваМедиа / СТС

1 Сезон
WEB-DLRip-AVC - http://rutracker.org/forum/viewtopic.php?t=3891772
1,2 Сезоны
HDTVRip-AVC - http://rutracker.org/forum/viewtopic.php?t=3815647
3 Сезон
BDRip-AVC - http://rutracker.org/forum/viewtopic.php?t=3816864

НТВ / НТВ+

1 Сезон
WEB-DLRip-AVC - http://rutracker.org/forum/viewtopic.php?t=3889033
Теория Большого Взрыва, дополнительные материалы - http://rutracker.org/forum/viewtopic.php?t=3405678
Вы не можете начинать темы
Вы не можете отвечать на сообщения
Вы не можете редактировать свои сообщения
Вы не можете удалять свои сообщения
Вы не можете голосовать в опросах
Вы не можете прикреплять файлы к сообщениям
Вы можете скачивать файлы
!ВНИМАНИЕ!

Сайт не предоставляет электронные версии произведений, а занимается лишь коллекционированием и каталогизацией ссылок, присылаемых и публикуемых на форуме нашими читателями. Если вы являетесь правообладателем какого-либо представленного материала и не желаете, чтобы ссылка на него находилась в нашем каталоге, свяжитесь с нами, и мы незамедлительно удалим ее. Файлы для обмена на трекере предоставлены пользователями сайта, и администрация не несет ответственности за их содержание. Просьба не заливать файлы, защищенные авторскими правами, а также файлы нелегального содержания!

Искали программы, игры, дополнения, музыка mp3, аниме, аудио книги, журналы? Добро пожаловать на свободный торрент трекер B-Tor.Ru, у нас можно скачать бесплатно, без смс и регистрации и прочих ограничений лучшие, отборные сборки программ, игр. Скачать торрентом не составит труда даже не опытному пользователю. Раздачи ежедневно обновляются, только лучшие и качественные раздачи, подробные описания и скриншоты. Огромная коллекция программ для работы со звуком, графикой, дизайном, а так же множество плагинов и инструментов к ним с подробной инструкцией и рекомендациями. Прошивки для навигаторов, карты. Разнообразные игры, для Windows, Linux. В коллекцие есть и старые игры любых жанров, Rpg, Action, Shooter, strategy Множество дополнений, модификаций, сценариев для популярных игр в жанре экш, рпг, гонки, стратегии, логические игры. Множество аддонов и сценариев для Microsoft Flight Simulator Большая коллекция книг, учебников. Если нет возможности купить печатное издание - смело скачивайте цифровую версию книги или, быть может, журнала. Не любите читать - можно загрузить бесплатно аудикнигу. Для веб дизайнеров и программистов так же найдется множество специализированного софта, таких как: редакторы с подсветкой, среды программирования, компоненты, системы управления базами данных, разнообразные скрипты и шаблоны. Не так давно у нас появился материал для автолюбителей и владельцев мото - оригинальные и неоригинальные каталоги запчастей, книги и журналы по ремонту и обслуживанию, видеоуроки, статьи по чип тюнингу, прошивкам. Процедура получения контента элементарная, достаточно просто скачать торрент файл и добавить его в загрузку в вашем торрент клиенте. Если у вас нет специального торрент клиента, вы можете его скачать у нас.