(Techno, Electro, Tech House) [4xCD] VA - Warenkorb Series (parts 1, 3, 5, 6) - 2001-2012, FLAC (tracks+.cue) lossless 

Цитировать

Warenkorb
Жанр: Techno, Electro, Tech House
Год издания диска: 2001-2012
Аудио кодек: FLAC (*.flac)
Тип рипа: tracks+.cue
Битрейт аудио: lossless
Продолжительность: 04:37:31
Источник (релизер): What.cd & apollo
Наличие сканов в содержимом раздачи: нет
Треклист:

VA - Digital Warenkorb #1 (2001)


Продолжительность: 01:09:03
01. Mathias Schaffhauser - Was Es Ist (5:17)
02. Iven Schmidt - Sun Iii (5:43)
03. The Kitbuilders - Give It To Me (6:35)
04. Iven Schmidt - Musik Mit Gesang (6:29)
05. Mathias Schaffhauser - Teenage Alibi (2nd Version) (6:42)
06. Mathias Schaffhauser - (Damals) In Wien (9:08)
07. Salz - Press, Radio & Speeches (7:04)
08. Decomposed Subsonic - Plastik (5:56)
09. Nieswandt & Schaffhauser - Loom Service (Original Mix) (5:55)
10. Benjamin Brunn - Reisfeld (6:12)
11. Schlublaufer - Neun.Punkt.Funf (4:01)
01. Mathias Schaffhäuser - Eifel 1999 (7:06)

log and sheet

Log

Exact Audio Copy V0.99 prebeta 3 from 28. July 2007
EAC extraction logfile from 7. March 2011, 13:06
Various / Digital Warenkorb #1
Used drive : PIONEER DVD-RW DVR-212D Adapter: 0 ID: 0
Read mode : SecureUtilize accurate stream : YesDefeat audio cache : YesMake use of C2 pointers : No
Read offset correction : 48Overread into Lead-In and Lead-Out : NoFill up missing offset samples with silence : YesDelete leading and trailing silent blocks : NoNull samples used in CRC calculations : YesUsed interface : Native Win32 interface for Win NT & 2000Gap handling : Appended to previous track
Used output format : User Defined EncoderSelected bitrate : 320 kBit/sQuality : HighAdd ID3 tag : NoCommand line compressor : C:\Program Files (x86)\FLAC\flac.exeAdditional command line options : -8 -V -T "artist=%a" -T "title=%t" -T "album=%g" -T "date=%y" -T "tracknumber=%n" -T "genre=%m" %s
TOC of the extracted CD
Track | Start | Length | Start sector | End sector --------------------------------------------------------- 1 | 0:00.00 | 5:17.29 | 0 | 23803 2 | 5:17.29 | 5:42.53 | 23804 | 49506 3 | 11:00.07 | 6:35.26 | 49507 | 79157 4 | 17:35.33 | 6:29.16 | 79158 | 108348 5 | 24:04.49 | 6:42.23 | 108349 | 138521 6 | 30:46.72 | 9:07.48 | 138522 | 179594 7 | 39:54.45 | 7:03.52 | 179595 | 211371 8 | 46:58.22 | 5:55.59 | 211372 | 238055 9 | 52:54.06 | 5:55.29 | 238056 | 264709 10 | 58:49.35 | 6:12.26 | 264710 | 292635 11 | 65:01.61 | 4:00.57 | 292636 | 310692
Track 1
Filename F:\WHAT.CD\Various - Digital Warenkorb #1\01.wav
Pre-gap length 0:00:02.00
Peak level 100.0 % Track quality 100.0 % Test CRC B5DA6D26 Copy CRC B5DA6D26 Track not present in AccurateRip database Copy OK
Track 2
Filename F:\WHAT.CD\Various - Digital Warenkorb #1\02.wav
Pre-gap length 0:00:00.02
Peak level 79.4 % Track quality 100.0 % Test CRC C2FDD052 Copy CRC C2FDD052 Track not present in AccurateRip database Copy OK
Track 3
Filename F:\WHAT.CD\Various - Digital Warenkorb #1\03.wav
Pre-gap length 0:00:00.02
Peak level 100.0 % Track quality 100.0 % Test CRC C3986F98 Copy CRC C3986F98 Track not present in AccurateRip database Copy OK
Track 4
Filename F:\WHAT.CD\Various - Digital Warenkorb #1\04.wav
Pre-gap length 0:00:00.02
Peak level 83.1 % Track quality 100.0 % Test CRC D7F7C481 Copy CRC D7F7C481 Track not present in AccurateRip database Copy OK
Track 5
Filename F:\WHAT.CD\Various - Digital Warenkorb #1\05.wav
Pre-gap length 0:00:00.02
Peak level 100.0 % Track quality 100.0 % Test CRC BBBEECF7 Copy CRC BBBEECF7 Track not present in AccurateRip database Copy OK
Track 6
Filename F:\WHAT.CD\Various - Digital Warenkorb #1\06.wav
Pre-gap length 0:00:00.02
Peak level 100.0 % Track quality 100.0 % Test CRC 03FCB48C Copy CRC 03FCB48C Track not present in AccurateRip database Copy OK
Track 7
Filename F:\WHAT.CD\Various - Digital Warenkorb #1\07.wav
Pre-gap length 0:00:00.02
Peak level 96.5 % Track quality 99.9 % Test CRC B5376815 Copy CRC B5376815 Track not present in AccurateRip database Copy OK
Track 8
Filename F:\WHAT.CD\Various - Digital Warenkorb #1\08.wav
Pre-gap length 0:00:00.02
Peak level 100.0 % Track quality 100.0 % Test CRC 5B6DC0B6 Copy CRC 5B6DC0B6 Track not present in AccurateRip database Copy OK
Track 9
Filename F:\WHAT.CD\Various - Digital Warenkorb #1\09.wav
Pre-gap length 0:00:00.02
Peak level 81.2 % Track quality 100.0 % Test CRC 1089959D Copy CRC 1089959D Track not present in AccurateRip database Copy OK
Track 10
Filename F:\WHAT.CD\Various - Digital Warenkorb #1\10.wav
Pre-gap length 0:00:00.02
Peak level 100.0 % Track quality 100.0 % Test CRC 0F9A64CD Copy CRC 0F9A64CD Track not present in AccurateRip database Copy OK
Track 11
Filename F:\WHAT.CD\Various - Digital Warenkorb #1\11.wav
Pre-gap length 0:00:00.02
Peak level 100.0 % Track quality 99.9 % Test CRC 6B973CED Copy CRC 6B973CED Track not present in AccurateRip database Copy OK
None of the tracks are present in the AccurateRip database
No errors occurred
End of status report

CUE

REM DISCID 9A102E0BREM COMMENT "ExactAudioCopy v0.99pb3"PERFORMER "Various"TITLE "Digital Warenkorb #1"FILE "01 - Mathias Schaffhauser - Was Es Ist.wav" WAVE  TRACK 01 AUDIO    TITLE "Was Es Ist"    PERFORMER "Mathias Schaffhauser"    INDEX 01 00:00:00FILE "02 - Iven Schmidt - Sun Iii.wav" WAVE  TRACK 02 AUDIO    TITLE "Sun Iii"    PERFORMER "Iven Schmidt"    INDEX 01 00:00:00FILE "03 - The Kitbuilders - Give It To Me.wav" WAVE  TRACK 03 AUDIO    TITLE "Give It To Me"    PERFORMER "The Kitbuilders"    INDEX 01 00:00:00FILE "04 - Iven Schmidt - Musik Mit Gesang.wav" WAVE  TRACK 04 AUDIO    TITLE "Musik Mit Gesang"    PERFORMER "Iven Schmidt"    INDEX 01 00:00:00FILE "05 - Mathias Schaffhauser - Teenage Alibi (2nd Version).wav" WAVE  TRACK 05 AUDIO    TITLE "Teenage Alibi (2nd Version)"    PERFORMER "Mathias Schaffhauser"    INDEX 01 00:00:00FILE "06 - Mathias Schaffhauser - (Damals) In Wien.wav" WAVE  TRACK 06 AUDIO    TITLE "(Damals) In Wien"    PERFORMER "Mathias Schaffhauser"    INDEX 01 00:00:00FILE "07 - Salz - Press, Radio & Speeches.wav" WAVE  TRACK 07 AUDIO    TITLE "Press, Radio & Speeches"    PERFORMER "Salz"    INDEX 01 00:00:00FILE "08 - Decomposed Subsonic - Plastik.wav" WAVE  TRACK 08 AUDIO    TITLE "Plastik"    PERFORMER "Decomposed Subsonic"    INDEX 01 00:00:00FILE "09 - Nieswandt & Schaffhauser - Loom Service (Original Mix).wav" WAVE  TRACK 09 AUDIO    TITLE "Loom Service (Original Mix)"    PERFORMER "Nieswandt & Schaffhauser"    INDEX 01 00:00:00FILE "10 - Benjamin Brunn - Reisfeld.wav" WAVE  TRACK 10 AUDIO    TITLE "Reisfeld"    PERFORMER "Benjamin Brunn"    INDEX 01 00:00:00FILE "11 - Schlublaufer - Neun.Punkt.Funf.wav" WAVE  TRACK 11 AUDIO    TITLE "Neun.Punkt.Funf"    PERFORMER "Schlublaufer"    INDEX 01 00:00:00

VA - Warenkorb #3 (2001)


Продолжительность: 01:10:03
01. Mathias Schaffhäuser - Eifel 1999 (7:06)
02. Salz - Nothing To Cut (5:43)
03. Decomposed Subsonic - Last Flight (6:31)
04. Benjamin Brunn - Sekt (5:13)
05. Caulfield - St. Pearl (6:11)
06. The Aphorism - Warmer Regen (6:53)
07. Markus Guentner - Carrier (6:10)
08. Midinovela - Dort Mund (4:48)
09. Iven Schmidt - Vincent's Run (5:12)
10. Mathias Schaffhäuser - Fuck, Past & Future (7:57)
11. Decomposed Subsonic - Blaue Löwen (Donna Regina Lied/Remixed By The Ware Boys) (3:29)
12. Mathias Schaffhäuser - Hey Little Girl (Radio Edit) (4:52)

log and sheet

Log

Exact Audio Copy V1.0 beta 6 from 9. April 2015
EAC extraction logfile from 23. July 2015, 21:16
Various Artists / Warenkorb #3
Used drive : ASUS DRW-24B5ST Adapter: 1 ID: 0
Read mode : SecureUtilize accurate stream : YesDefeat audio cache : YesMake use of C2 pointers : No
Read offset correction : 6Overread into Lead-In and Lead-Out : NoFill up missing offset samples with silence : YesDelete leading and trailing silent blocks : NoNull samples used in CRC calculations : YesUsed interface : Native Win32 interface for Win NT & 2000Gap handling : Appended to previous track
Used output format : User Defined EncoderSelected bitrate : 896 kBit/sQuality : HighAdd ID3 tag : NoCommand line compressor : C:\Program Files (x86)\Exact Audio Copy\Flac\flac.exeAdditional command line options : -8 -V -T "ARTIST=%artist%" -T "TITLE=%title%" -T "ALBUM=%albumtitle%" -T "DATE=%year%" -T "TRACKNUMBER=%tracknr%" -T "GENRE=%genre%" -T "PERFORMER=%albuminterpret%" -T "COMPOSER=%composer%" %haslyrics%--tag-from-file=LYRICS="%lyricsfile%"%haslyrics% -T "ALBUMARTIST=%albumartist%" -T "DISCNUMBER=%cdnumber%" -T "TOTALDISCS=%totalcds%" -T "TOTALTRACKS=%numtracks%" -T "COMMENT=%comment%" %source% -o %dest%
TOC of the extracted CD
Track | Start | Length | Start sector | End sector --------------------------------------------------------- 1 | 0:00.00 | 7:05.46 | 0 | 31920 2 | 7:05.46 | 5:42.44 | 31921 | 57614 3 | 12:48.15 | 6:30.70 | 57615 | 86934 4 | 19:19.10 | 5:13.10 | 86935 | 110419 5 | 24:32.20 | 6:10.38 | 110420 | 138207 6 | 30:42.58 | 6:53.28 | 138208 | 169210 7 | 37:36.11 | 6:09.38 | 169211 | 196923 8 | 43:45.49 | 4:47.64 | 196924 | 218512 9 | 48:33.38 | 5:12.11 | 218513 | 241923 10 | 53:45.49 | 7:56.55 | 241924 | 277678 11 | 61:42.29 | 3:29.15 | 277679 | 293368 12 | 65:11.44 | 4:51.54 | 293369 | 315247
Track 1
Filename G:\Torrents\VA - Warenkorb #3 (2001) [CD-FLAC]\1-01. Mathias Schaffhäuser - Eifel 1999.wav
Pre-gap length 0:00:02.00
Peak level 97.7 % Extraction speed 1.7 X Track quality 99.9 % Test CRC 044BA244 Copy CRC 044BA244 Accurately ripped (confidence 1) [28B30A5C] (AR v2) Copy OK
Track 2
Filename G:\Torrents\VA - Warenkorb #3 (2001) [CD-FLAC]\1-02. Salz - Nothing To Cut.wav
Peak level 87.2 % Extraction speed 1.8 X Track quality 99.9 % Test CRC BB279B4B Copy CRC BB279B4B Accurately ripped (confidence 1) [5AC5068D] (AR v2) Copy OK
Track 3
Filename G:\Torrents\VA - Warenkorb #3 (2001) [CD-FLAC]\1-03. Decomposed Subsonic - Last Flight.wav
Peak level 97.7 % Extraction speed 2.6 X Track quality 100.0 % Test CRC 645B3142 Copy CRC 645B3142 Accurately ripped (confidence 1) [63AB22CF] (AR v2) Copy OK
Track 4
Filename G:\Torrents\VA - Warenkorb #3 (2001) [CD-FLAC]\1-04. Benjamin Brunn - Sekt.wav
Peak level 95.2 % Extraction speed 2.8 X Track quality 100.0 % Test CRC 469E7361 Copy CRC 469E7361 Accurately ripped (confidence 1) [083EAA0B] (AR v2) Copy OK
Track 5
Filename G:\Torrents\VA - Warenkorb #3 (2001) [CD-FLAC]\1-05. Caulfield - St. Pearl.wav
Peak level 75.8 % Extraction speed 2.4 X Track quality 99.9 % Test CRC 4C487EC8 Copy CRC 4C487EC8 Accurately ripped (confidence 1) [92F9BF5A] (AR v2) Copy OK
Track 6
Filename G:\Torrents\VA - Warenkorb #3 (2001) [CD-FLAC]\1-06. The Aphorism - Warmer Regen.wav
Peak level 74.2 % Extraction speed 3.3 X Track quality 100.0 % Test CRC 9128440E Copy CRC 9128440E Accurately ripped (confidence 1) [6423F951] (AR v2) Copy OK
Track 7
Filename G:\Torrents\VA - Warenkorb #3 (2001) [CD-FLAC]\1-07. Markus Guentner - Carrier.wav
Peak level 97.7 % Extraction speed 2.8 X Track quality 99.9 % Test CRC F67B18EB Copy CRC F67B18EB Accurately ripped (confidence 1) [A9A7EB95] (AR v2) Copy OK
Track 8
Filename G:\Torrents\VA - Warenkorb #3 (2001) [CD-FLAC]\1-08. Midinovela - Dort Mund.wav
Peak level 96.0 % Extraction speed 2.7 X Track quality 99.9 % Test CRC B6030965 Copy CRC B6030965 Accurately ripped (confidence 1) [B5B4DF4F] (AR v2) Copy OK
Track 9
Filename G:\Torrents\VA - Warenkorb #3 (2001) [CD-FLAC]\1-09. Iven Schmidt - Vincent's Run.wav
Peak level 96.2 % Extraction speed 3.7 X Track quality 100.0 % Test CRC 044C9A5A Copy CRC 044C9A5A Accurately ripped (confidence 1) [E0085B5C] (AR v2) Copy OK
Track 10
Filename G:\Torrents\VA - Warenkorb #3 (2001) [CD-FLAC]\1-10. Mathias Schaffhäuser - Fuck, Past & Future.wav
Peak level 78.4 % Extraction speed 3.3 X Track quality 99.9 % Test CRC D646CE56 Copy CRC D646CE56 Accurately ripped (confidence 1) [2A0A9436] (AR v2) Copy OK
Track 11
Filename G:\Torrents\VA - Warenkorb #3 (2001) [CD-FLAC]\1-11. Decomposed Subsonic - Blaue Löwen (Donna Regina Lied,Remixed By The Ware Boys).wav
Peak level 66.0 % Extraction speed 3.8 X Track quality 100.0 % Test CRC A85A8CDD Copy CRC A85A8CDD Accurately ripped (confidence 1) [7880939D] (AR v2) Copy OK
Track 12
Filename G:\Torrents\VA - Warenkorb #3 (2001) [CD-FLAC]\1-12. Mathias Schaffhäuser - Hey Little Girl (Radio Edit).wav
Peak level 90.2 % Extraction speed 4.1 X Track quality 100.0 % Test CRC 668D8D38 Copy CRC 668D8D38 Accurately ripped (confidence 1) [66AB7332] (AR v2) Copy OK
All tracks accurately ripped
No errors occurred
End of status report
---- CUETools DB Plugin V2.1.6
[CTDB TOCID: AxPF9JsZPm6desQbn11Je94t7YM-] disk not present in databaseSubmit result: AxPF9JsZPm6desQbn11Je94t7YM- has been uploaded
==== Log checksum 38036F752B061789223D2082025C94963864EE75226FD9B6C3C0E8BB835DC93C ====

CUE

REM GENRE "House, Techno, Minimal"REM DATE 2001REM DISCID A6106B0CREM COMMENT "ExactAudioCopy v1.0b6"PERFORMER "Various Artists"TITLE "Warenkorb #3"FILE "1-01. Mathias Schaffhauser - Eifel 1999.wav" WAVE  TRACK 01 AUDIO    TITLE "Eifel 1999"    PERFORMER "Mathias Schaffhauser"    INDEX 01 00:00:00FILE "1-02. Salz - Nothing To Cut.wav" WAVE  TRACK 02 AUDIO    TITLE "Nothing To Cut"    PERFORMER "Salz"    INDEX 01 00:00:00FILE "1-03. Decomposed Subsonic - Last Flight.wav" WAVE  TRACK 03 AUDIO    TITLE "Last Flight"    PERFORMER "Decomposed Subsonic"    INDEX 01 00:00:00FILE "1-04. Benjamin Brunn - Sekt.wav" WAVE  TRACK 04 AUDIO    TITLE "Sekt"    PERFORMER "Benjamin Brunn"    INDEX 01 00:00:00FILE "1-05. Caulfield - St. Pearl.wav" WAVE  TRACK 05 AUDIO    TITLE "St. Pearl"    PERFORMER "Caulfield"    INDEX 01 00:00:00FILE "1-06. The Aphorism - Warmer Regen.wav" WAVE  TRACK 06 AUDIO    TITLE "Warmer Regen"    PERFORMER "The Aphorism"    INDEX 01 00:00:00FILE "1-07. Markus Guentner - Carrier.wav" WAVE  TRACK 07 AUDIO    TITLE "Carrier"    PERFORMER "Markus Guentner"    INDEX 01 00:00:00FILE "1-08. Midinovela - Dort Mund.wav" WAVE  TRACK 08 AUDIO    TITLE "Dort Mund"    PERFORMER "Midinovela"    INDEX 01 00:00:00FILE "1-09. Iven Schmidt - Vincent's Run.wav" WAVE  TRACK 09 AUDIO    TITLE "Vincent's Run"    PERFORMER "Iven Schmidt"    INDEX 01 00:00:00FILE "1-10. Mathias Schaffhauser - Fuck, Past & Future.wav" WAVE  TRACK 10 AUDIO    TITLE "Fuck, Past & Future"    PERFORMER "Mathias Schaffhauser"    INDEX 01 00:00:00FILE "1-11. Decomposed Subsonic - Blaue Lowen (Donna Regina Lied,Remixed By The Ware Boys).wav" WAVE  TRACK 11 AUDIO    TITLE "Blaue Lowen (Donna Regina Lied/Remixed By The Ware Boys)"    PERFORMER "Decomposed Subsonic"    INDEX 01 00:00:00FILE "1-12. Mathias Schaffhauser - Hey Little Girl (Radio Edit).wav" WAVE  TRACK 12 AUDIO    TITLE "Hey Little Girl (Radio Edit)"    PERFORMER "Mathias Schaffhauser"    INDEX 01 00:00:00

VA - Warenkorb #5 (2004)


Продолжительность: 01:12:57
01. Mathias Schaffhäuser - It's Still A Strange & Beautiful World (7:13)
02. The Aphorism - Eckball (4:00)
03. Kitbuilders Vs. Jeremy P. Caulfield - Get Out (Remixed) (4:58)
04. Coloma Vs. Bob Humid - The Second Closer Still (Third Blade Mix) (3:37)
05. Dominik Eulberg - Knock Out (7:04)
06. Goldfish Und Der Dulz - Synchrorevue (6:33)
07. Ziggy Kinder - Chop Ziggy (5:13)
08. Brian Aneurysm - Rund-Funk (5:46)
09. Matthew Mercer - Likelike (6:13)
10. Featherweight - What's Your Bomb?? (4:47)
11. Markus Guentner - Royal Decree (5:25)
12. Soda Inc. - Morning Prayer (6:12)
13. Rudolfo Irving Vs. Decomposed Subsonic - Disco 'till You Die (Morning Mix) (5:57)

log and sheet

Log

X Lossless Decoder version 20120407 (140.0)
XLD extraction logfile from 2012-04-12 15:29:09 +0200
Various Artists / Warenkorb #5
Used drive : MATSHITA DVD-R UJ-857 (revision HAEA)
Ripper mode : XLD Secure RipperDisable audio cache : OK for the drive with a cache less than 1375KiBMake use of C2 pointers : NORead offset correction : 102Max retry count : 20Gap status : Analyzed, Appended (except HTOA)
TOC of the extracted CD Track | Start | Length | Start sector | End sector --------------------------------------------------------- 1 | 00:00:00 | 07:13:20 | 0 | 32494 2 | 07:13:20 | 04:00:06 | 32495 | 50500 3 | 11:13:26 | 04:58:18 | 50501 | 72868 4 | 16:11:44 | 03:36:45 | 72869 | 89113 5 | 19:48:14 | 07:04:05 | 89114 | 120918 6 | 26:52:19 | 06:32:43 | 120919 | 150361 7 | 33:24:62 | 05:13:06 | 150362 | 173842 8 | 38:37:68 | 05:45:46 | 173843 | 199763 9 | 44:23:39 | 06:12:58 | 199764 | 227721 10 | 50:36:22 | 04:47:15 | 227722 | 249261 11 | 55:23:37 | 05:25:08 | 249262 | 273644 12 | 60:48:45 | 06:12:10 | 273645 | 301554 13 | 67:00:55 | 05:56:39 | 301555 | 328293
AccurateRip Summary Disc not found in AccurateRip DB.
All Tracks Album gain : -6.12 dB Peak : 0.988983 Statistics Read error : 0 Jitter error (maybe fixed) : 0 Retry sector count : 0 Damaged sector count : 0
Track 01 Filename : /Users/admin/Music/Various Artists - Warenkorb #5 (2004) [FLAC]/01 Mathias Schaffhauser - It's Still A Strange & Beautiful World.flac Pre-gap length : 00:02:00
Track gain : -5.57 dB Peak : 0.988983 CRC32 hash (test run) : 38190FF8 CRC32 hash : 38190FF8 CRC32 hash (skip zero) : 8A1BE713 AccurateRip signature : ACE712EA ->Track not present in AccurateRip database. Statistics Read error : 0 Jitter error (maybe fixed) : 0 Retry sector count : 0 Damaged sector count : 0
Track 02 Filename : /Users/admin/Music/Various Artists - Warenkorb #5 (2004) [FLAC]/02 The Aphorism - Eckball.flac
Track gain : -4.53 dB Peak : 0.988800 CRC32 hash (test run) : E594E24D CRC32 hash : E594E24D CRC32 hash (skip zero) : 04B559EF AccurateRip signature : 1D62EAFB ->Track not present in AccurateRip database. Statistics Read error : 0 Jitter error (maybe fixed) : 0 Retry sector count : 0 Damaged sector count : 0
Track 03 Filename : /Users/admin/Music/Various Artists - Warenkorb #5 (2004) [FLAC]/03 The Kitbuilders vs Jeremy P Caulfield - Get Out (remix).flac
Track gain : -4.86 dB Peak : 0.988831 CRC32 hash (test run) : 8AF6889D CRC32 hash : 8AF6889D CRC32 hash (skip zero) : B8EF4371 AccurateRip signature : 5535EA3E ->Track not present in AccurateRip database. Statistics Read error : 0 Jitter error (maybe fixed) : 0 Retry sector count : 0 Damaged sector count : 0
Track 04 Filename : /Users/admin/Music/Various Artists - Warenkorb #5 (2004) [FLAC]/04 Coloma vs Bob Humid - The Second Closer Still (Third Blade mix).flac
Track gain : -6.54 dB Peak : 0.988983 CRC32 hash (test run) : 72CEC7C6 CRC32 hash : 72CEC7C6 CRC32 hash (skip zero) : 4C9B9BDC AccurateRip signature : 96277CD8 ->Track not present in AccurateRip database. Statistics Read error : 0 Jitter error (maybe fixed) : 0 Retry sector count : 0 Damaged sector count : 0
Track 05 Filename : /Users/admin/Music/Various Artists - Warenkorb #5 (2004) [FLAC]/05 Dominik Eulberg - Knock Out.flac
Track gain : -5.45 dB Peak : 0.988678 CRC32 hash (test run) : D7DC79E0 CRC32 hash : D7DC79E0 CRC32 hash (skip zero) : 02641247 AccurateRip signature : ECCE173E ->Track not present in AccurateRip database. Statistics Read error : 0 Jitter error (maybe fixed) : 0 Retry sector count : 0 Damaged sector count : 0
Track 06 Filename : /Users/admin/Music/Various Artists - Warenkorb #5 (2004) [FLAC]/06 Goldfish & Der Dulz - Synchrorevue.flac
Track gain : -7.13 dB Peak : 0.988831 CRC32 hash (test run) : 83C28238 CRC32 hash : 83C28238 CRC32 hash (skip zero) : EF91FA74 AccurateRip signature : 84ADD289 ->Track not present in AccurateRip database. Statistics Read error : 0 Jitter error (maybe fixed) : 0 Retry sector count : 0 Damaged sector count : 0
Track 07 Filename : /Users/admin/Music/Various Artists - Warenkorb #5 (2004) [FLAC]/07 Ziggy Kinder - Chop Ziggy.flac
Track gain : -5.81 dB Peak : 0.988800 CRC32 hash (test run) : 1B13B1CD CRC32 hash : 1B13B1CD CRC32 hash (skip zero) : 99B94241 AccurateRip signature : AAF44493 ->Track not present in AccurateRip database. Statistics Read error : 0 Jitter error (maybe fixed) : 0 Retry sector count : 0 Damaged sector count : 0
Track 08 Filename : /Users/admin/Music/Various Artists - Warenkorb #5 (2004) [FLAC]/08 Brian Aneurysm - Rund-Funk.flac
Track gain : -7.31 dB Peak : 0.988770 CRC32 hash (test run) : 2C786C7B CRC32 hash : 2C786C7B CRC32 hash (skip zero) : AB25C051 AccurateRip signature : B22EB5C9 ->Track not present in AccurateRip database. Statistics Read error : 0 Jitter error (maybe fixed) : 0 Retry sector count : 0 Damaged sector count : 0
Track 09 Filename : /Users/admin/Music/Various Artists - Warenkorb #5 (2004) [FLAC]/09 Matthew Mercer - Likelike.flac
Track gain : -6.57 dB Peak : 0.988770 CRC32 hash (test run) : 6A2E85B9 CRC32 hash : 6A2E85B9 CRC32 hash (skip zero) : 1177FA8C AccurateRip signature : 18EE984B ->Track not present in AccurateRip database. Statistics Read error : 0 Jitter error (maybe fixed) : 0 Retry sector count : 0 Damaged sector count : 0
Track 10 Filename : /Users/admin/Music/Various Artists - Warenkorb #5 (2004) [FLAC]/10 Featherweight - What's Your Bomb.flac
Track gain : -6.60 dB Peak : 0.927246 CRC32 hash (test run) : A503C12A CRC32 hash : A503C12A CRC32 hash (skip zero) : 708A44EB AccurateRip signature : 2C3C94C8 ->Track not present in AccurateRip database. Statistics Read error : 0 Jitter error (maybe fixed) : 0 Retry sector count : 0 Damaged sector count : 0
Track 11 Filename : /Users/admin/Music/Various Artists - Warenkorb #5 (2004) [FLAC]/11 Markus Guenter - Royal Decree.flac
Track gain : -5.97 dB Peak : 0.988770 CRC32 hash (test run) : E85F87F7 CRC32 hash : E85F87F7 CRC32 hash (skip zero) : FAD195B2 AccurateRip signature : 8CECC9B0 ->Track not present in AccurateRip database. Statistics Read error : 0 Jitter error (maybe fixed) : 0 Retry sector count : 0 Damaged sector count : 0
Track 12 Filename : /Users/admin/Music/Various Artists - Warenkorb #5 (2004) [FLAC]/12 Soda Inc - Morning Prayer.flac
Track gain : -6.95 dB Peak : 0.988800 CRC32 hash (test run) : 76EFE5E9 CRC32 hash : 76EFE5E9 CRC32 hash (skip zero) : 05457D0E AccurateRip signature : 50A8919E ->Track not present in AccurateRip database. Statistics Read error : 0 Jitter error (maybe fixed) : 0 Retry sector count : 0 Damaged sector count : 0
Track 13 Filename : /Users/admin/Music/Various Artists - Warenkorb #5 (2004) [FLAC]/13 Rudolfo Irving vs Decomposed Subsonic - Disco 'Til You Die (Morning mix).flac
Track gain : -3.55 dB Peak : 0.988708 CRC32 hash (test run) : EB8BFBD6 CRC32 hash : EB8BFBD6 CRC32 hash (skip zero) : A5759C0A AccurateRip signature : 5F3B60FD ->Track not present in AccurateRip database. Statistics Read error : 0 Jitter error (maybe fixed) : 0 Retry sector count : 0 Damaged sector count : 0
No errors occurred
End of status report

CUE

TITLE "Warenkorb #5 "PERFORMER "Various Artists"REM DATE "2004"REM DISCID A511190DREM REPLAYGAIN_ALBUM_GAIN -6.12 dBREM REPLAYGAIN_ALBUM_PEAK 0.988983FILE "01 Mathias Schaffhauser - It's Still A Strange & Beautiful World.flac" WAVE  TRACK 01 AUDIO    TITLE "Mathias Schaffhauser - It's Still A Strange & Beautiful World"    PERFORMER "Mathias Schaffhauser"    FLAGS DCP    REM COMMENT "Ware – ware cd 13"    REM REPLAYGAIN_TRACK_GAIN -5.57 dB    REM REPLAYGAIN_TRACK_PEAK 0.988983    INDEX 01 00:00:00FILE "02 The Aphorism - Eckball.flac" WAVE  TRACK 02 AUDIO    TITLE "The Aphorism - Eckball"    PERFORMER "The Aphorism"    FLAGS DCP    REM COMMENT "Ware – ware cd 13"    REM REPLAYGAIN_TRACK_GAIN -4.53 dB    REM REPLAYGAIN_TRACK_PEAK 0.988800    INDEX 01 00:00:00FILE "03 The Kitbuilders vs Jeremy P Caulfield - Get Out (remix).flac" WAVE  TRACK 03 AUDIO    TITLE "The Kitbuilders vs Jeremy P Caulfield - Get Out (remix)"    PERFORMER "The Kitbuilders vs Jeremy P Caulfield"    FLAGS DCP    REM COMMENT "Ware – ware cd 13"    REM REPLAYGAIN_TRACK_GAIN -4.86 dB    REM REPLAYGAIN_TRACK_PEAK 0.988831    INDEX 01 00:00:00FILE "04 Coloma vs Bob Humid - The Second Closer Still (Third Blade mix).flac" WAVE  TRACK 04 AUDIO    TITLE "Coloma vs Bob Humid - The Second Closer Still (Third Blade mix)"    PERFORMER "Coloma vs Bob Humid"    FLAGS DCP    REM COMMENT "Ware – ware cd 13"    REM REPLAYGAIN_TRACK_GAIN -6.54 dB    REM REPLAYGAIN_TRACK_PEAK 0.988983    INDEX 01 00:00:00FILE "05 Dominik Eulberg - Knock Out.flac" WAVE  TRACK 05 AUDIO    TITLE "Dominik Eulberg - Knock Out"    PERFORMER "Dominik Eulberg"    FLAGS DCP    REM COMMENT "Ware – ware cd 13"    REM REPLAYGAIN_TRACK_GAIN -5.45 dB    REM REPLAYGAIN_TRACK_PEAK 0.988678    INDEX 01 00:00:00FILE "06 Goldfish & Der Dulz - Synchrorevue.flac" WAVE  TRACK 06 AUDIO    TITLE "Goldfish & Der Dulz - Synchrorevue"    PERFORMER "Goldfish & Der Dulz"    FLAGS DCP    REM COMMENT "Ware – ware cd 13"    REM REPLAYGAIN_TRACK_GAIN -7.13 dB    REM REPLAYGAIN_TRACK_PEAK 0.988831    INDEX 01 00:00:00FILE "07 Ziggy Kinder - Chop Ziggy.flac" WAVE  TRACK 07 AUDIO    TITLE "Ziggy Kinder - Chop Ziggy"    PERFORMER "Ziggy Kinder"    FLAGS DCP    REM COMMENT "Ware – ware cd 13"    REM REPLAYGAIN_TRACK_GAIN -5.81 dB    REM REPLAYGAIN_TRACK_PEAK 0.988800    INDEX 01 00:00:00FILE "08 Brian Aneurysm - Rund-Funk.flac" WAVE  TRACK 08 AUDIO    TITLE "Brian Aneurysm - Rund-Funk"    PERFORMER "Brian Aneurysm"    FLAGS DCP    REM COMMENT "Ware – ware cd 13"    REM REPLAYGAIN_TRACK_GAIN -7.31 dB    REM REPLAYGAIN_TRACK_PEAK 0.988770    INDEX 01 00:00:00FILE "09 Matthew Mercer - Likelike.flac" WAVE  TRACK 09 AUDIO    TITLE "Matthew Mercer - Likelike"    PERFORMER "Matthew Mercer"    FLAGS DCP    REM COMMENT "Ware – ware cd 13"    REM REPLAYGAIN_TRACK_GAIN -6.57 dB    REM REPLAYGAIN_TRACK_PEAK 0.988770    INDEX 01 00:00:00FILE "10 Featherweight - What's Your Bomb.flac" WAVE  TRACK 10 AUDIO    TITLE "Featherweight - What's Your Bomb"    PERFORMER "Featherweight"    FLAGS DCP    REM COMMENT "Ware – ware cd 13"    REM REPLAYGAIN_TRACK_GAIN -6.60 dB    REM REPLAYGAIN_TRACK_PEAK 0.927246    INDEX 01 00:00:00FILE "11 Markus Guenter - Royal Decree.flac" WAVE  TRACK 11 AUDIO    TITLE "Markus Guenter - Royal Decree"    PERFORMER "Markus Guenter"    FLAGS DCP    REM COMMENT "Ware – ware cd 13"    REM REPLAYGAIN_TRACK_GAIN -5.97 dB    REM REPLAYGAIN_TRACK_PEAK 0.988770    INDEX 01 00:00:00FILE "12 Soda Inc - Morning Prayer.flac" WAVE  TRACK 12 AUDIO    TITLE "Soda Inc - Morning Prayer"    PERFORMER "Soda Inc"    FLAGS DCP    REM COMMENT "Ware – ware cd 13"    REM REPLAYGAIN_TRACK_GAIN -6.95 dB    REM REPLAYGAIN_TRACK_PEAK 0.988800    INDEX 01 00:00:00FILE "13 Rudolfo Irving vs Decomposed Subsonic - Disco 'Til You Die (Morning mix).flac" WAVE  TRACK 13 AUDIO    TITLE "Rudolfo Irving vs Decomposed Subsonic - Disco 'Til You Die (Morning mix)"    PERFORMER "Rudolfo Irving vs Decomposed Subsonic"    FLAGS DCP    REM COMMENT "Ware – ware cd 13"    REM REPLAYGAIN_TRACK_GAIN -3.55 dB    REM REPLAYGAIN_TRACK_PEAK 0.988708    INDEX 01 00:00:00

VA - Warenkorb #6 (2012)


Продолжительность: 01:05:27
01. Mr. Statik - Soul (Vocal Mix) (3:38)
02. Paulice & Onkel Brutalo - Ace Bum (5:10)
03. Philogresz Presents Dubgray Dust - This Is For My Dutch Crowd (Mathias Schaffhauser's 'this Is For My Dub Crowd' Remix) (4:23)
04. Ziggy Kinder - Colorholic (5:25)
05. [A]Pendics.Shuffle - Don't Worry About Them (6:12)
06. Mathias Schaffhauser - Nice To Meet You (Chra's 'nice To Have Friends' Remix) (4:31)
07. Dunck - Stellplatz Der Zukunft (9:02)
08. Symon Hollner - Deep End (4:36)
09. Philogresz Presents Dubgray Dust - This Is For My Dutch Crowd (4:23)
10. Chra - Sakenoiva (Mathias Schaffhauser Remix) (5:20)
11. Mathias Schaffhauser - Pumpe / Duse (9:55)
12. Markus Guentner - Extravagances Of The Poor (2:54)

log and sheet

Log

Exact Audio Copy V1.0 beta 3 from 29. August 2011
EAC extraction logfile from 6. July 2012, 9:23
Various Artists / Warenkorb #6
Used drive : PLEXTOR DVDR PX-755A Adapter: 4 ID: 0
Read mode : SecureUtilize accurate stream : YesDefeat audio cache : YesMake use of C2 pointers : No
Read offset correction : 30Overread into Lead-In and Lead-Out : NoFill up missing offset samples with silence : YesDelete leading and trailing silent blocks : NoNull samples used in CRC calculations : YesUsed interface : Native Win32 interface for Win NT & 2000Gap handling : Appended to previous track
Used output format : User Defined EncoderSelected bitrate : 1024 kBit/sQuality : HighAdd ID3 tag : NoCommand line compressor : C:\Program Files\Exact Audio Copy\Flac\flac.exeAdditional command line options : -8 -V -T "ARTIST=%artist%" -T "TITLE=%title%" -T "ALBUM=%albumtitle%" -T "DATE=%year%" -T "TRACKNUMBER=%tracknr%" -T "GENRE=%genre%" -T "PERFORMER=%albuminterpret%" -T "COMPOSER=%composer%" %haslyrics%--tag-from-file=LYRICS="%lyricsfile%"%haslyrics% -T "ALBUMARTIST=%albumartist%" -T "DISCNUMBER=%cdnumber%" -T "TOTALDISCS=%totalcds%" -T "TOTALTRACKS=%numtracks%" -T "COMMENT=%comment%" %source% -o %dest%
TOC of the extracted CD
Track | Start | Length | Start sector | End sector --------------------------------------------------------- 1 | 0:00.00 | 3:37.41 | 0 | 16315 2 | 3:37.41 | 5:09.44 | 16316 | 39534 3 | 8:47.10 | 4:23.17 | 39535 | 59276 4 | 13:10.27 | 5:25.14 | 59277 | 83665 5 | 18:35.41 | 6:11.49 | 83666 | 111539 6 | 24:47.15 | 4:30.73 | 111540 | 131862 7 | 29:18.13 | 9:01.69 | 131863 | 172506 8 | 38:20.07 | 4:35.67 | 172507 | 193198 9 | 42:55.74 | 4:22.39 | 193199 | 212887 10 | 47:18.38 | 5:19.38 | 212888 | 236850 11 | 52:38.01 | 9:55.13 | 236851 | 281488 12 | 62:33.14 | 2:54.21 | 281489 | 294559
Track 1
Filename L:\MUSIC\VA - Warenkorb #6 (2012) [FLAC]\1-01. Mr. Statik - Soul (Vocal Mix).wav
Pre-gap length 0:00:02.00
Peak level 98.8 % Extraction speed 5.1 X Track quality 100.0 % Test CRC 5644DA65 Copy CRC 5644DA65 Track not present in AccurateRip database Copy OK
Track 2
Filename L:\MUSIC\VA - Warenkorb #6 (2012) [FLAC]\1-02. Paulice & Onkel Brutalo - Ace Bum.wav
Peak level 98.8 % Extraction speed 5.8 X Track quality 100.0 % Test CRC B2C84F5B Copy CRC B2C84F5B Track not present in AccurateRip database Copy OK
Track 3
Filename L:\MUSIC\VA - Warenkorb #6 (2012) [FLAC]\1-03. Philogresz Presents Dubgray Dust - This Is For My Dutch Crowd (Mathias Schaffhäuser's ''This Is For My Dub Crowd'' Remix).wav
Peak level 98.8 % Extraction speed 6.2 X Track quality 100.0 % Test CRC 419E46F3 Copy CRC 419E46F3 Track not present in AccurateRip database Copy OK
Track 4
Filename L:\MUSIC\VA - Warenkorb #6 (2012) [FLAC]\1-04. Ziggy Kinder - Colorholic.wav
Peak level 98.8 % Extraction speed 6.8 X Track quality 100.0 % Test CRC 6671120D Copy CRC 6671120D Track not present in AccurateRip database Copy OK
Track 5
Filename L:\MUSIC\VA - Warenkorb #6 (2012) [FLAC]\1-05. [a]pendics.shuffle - Don't Worry About Them.wav
Peak level 98.8 % Extraction speed 7.4 X Track quality 100.0 % Test CRC 35FC5B25 Copy CRC 35FC5B25 Track not present in AccurateRip database Copy OK
Track 6
Filename L:\MUSIC\VA - Warenkorb #6 (2012) [FLAC]\1-06. Mathias Schaffhäuser - Nice To Meet You (Chra’s ''Nice To Have Friends'' Remix).wav
Peak level 98.8 % Extraction speed 7.6 X Track quality 100.0 % Test CRC 19757533 Copy CRC 19757533 Track not present in AccurateRip database Copy OK
Track 7
Filename L:\MUSIC\VA - Warenkorb #6 (2012) [FLAC]\1-07. Dunck - Stellplatz Der Zukunft.wav
Peak level 98.8 % Extraction speed 4.5 X Track quality 99.8 % Test CRC CF6BC19C Copy CRC CF6BC19C Track not present in AccurateRip database Copy OK
Track 8
Filename L:\MUSIC\VA - Warenkorb #6 (2012) [FLAC]\1-08. Symon Hollner - Deep End.wav
Peak level 98.8 % Extraction speed 7.2 X Track quality 99.9 % Test CRC 88769A13 Copy CRC 88769A13 Track not present in AccurateRip database Copy OK
Track 9
Filename L:\MUSIC\VA - Warenkorb #6 (2012) [FLAC]\1-09. Philogresz Presents Dubgray Dust - This Is For My Dutch Crowd.wav
Peak level 98.8 % Extraction speed 8.7 X Track quality 100.0 % Test CRC 1BA24C6A Copy CRC 1BA24C6A Track not present in AccurateRip database Copy OK
Track 10
Filename L:\MUSIC\VA - Warenkorb #6 (2012) [FLAC]\1-10. Chra - Såkenoivå (Mathias Schaffhäuser Remix).wav
Peak level 98.8 % Extraction speed 7.0 X Track quality 100.0 % Test CRC A2B28C5B Copy CRC A2B28C5B Track not present in AccurateRip database Copy OK
Track 11
Filename L:\MUSIC\VA - Warenkorb #6 (2012) [FLAC]\1-11. Mathias Schaffhäuser - Pumpe , Düse.wav
Peak level 98.8 % Extraction speed 10.1 X Track quality 100.0 % Test CRC 1E90F4C7 Copy CRC 1E90F4C7 Track not present in AccurateRip database Copy OK
Track 12
Filename L:\MUSIC\VA - Warenkorb #6 (2012) [FLAC]\1-12. Markus Guentner - Extravagances Of The Poor.wav
Peak level 98.8 % Extraction speed 7.1 X Track quality 99.9 % Test CRC 8B073881 Copy CRC 8B073881 Track not present in AccurateRip database Copy OK
None of the tracks are present in the AccurateRip database
No errors occurred
End of status report
---- CUETools DB Plugin V2.1.3
[CTDB TOCID: RYXiTD6yWfhoeGXngttYXbUrxnk-] disk not present in database, Submit result: RYXiTD6yWfhoeGXngttYXbUrxnk- has been uploaded
==== Log checksum 31804775E8030339628A661F12705E45E2BD33E43E26379E1DCC7BDC862A184E ====

CUE

REM GENRE "House, Techno, Tech House"REM DATE 2012REM DISCID A60F570CREM COMMENT "ExactAudioCopy v1.0b3"PERFORMER "Various Artists"TITLE "Warenkorb #6"FILE "1-01. Mr. Statik - Soul (Vocal Mix).wav" WAVE  TRACK 01 AUDIO    TITLE "Soul (Vocal Mix)"    PERFORMER "Mr. Statik"    INDEX 01 00:00:00FILE "1-02. Paulice & Onkel Brutalo - Ace Bum.wav" WAVE  TRACK 02 AUDIO    TITLE "Ace Bum"    PERFORMER "Paulice & Onkel Brutalo"    INDEX 01 00:00:00FILE "1-03. Philogresz Presents Dubgray Dust - This Is For My Dutch Crowd (Mathias Schaffhauser's ''This Is For My Dub Crowd'' Remix).wav" WAVE  TRACK 03 AUDIO    TITLE "This Is For My Dutch Crowd (Mathias Schaffhauser's 'This Is For My Dub Crowd'..."    PERFORMER "Philogresz Presents Dubgray Dust"    INDEX 01 00:00:00FILE "1-04. Ziggy Kinder - Colorholic.wav" WAVE  TRACK 04 AUDIO    TITLE "Colorholic"    PERFORMER "Ziggy Kinder"    INDEX 01 00:00:00FILE "1-05. [a]pendics.shuffle - Don't Worry About Them.wav" WAVE  TRACK 05 AUDIO    TITLE "Don't Worry About Them"    PERFORMER "[a]pendics.shuffle"    INDEX 01 00:00:00FILE "1-06. Mathias Schaffhauser - Nice To Meet You (Chra’s ''Nice To Have Friends'' Remix).wav" WAVE  TRACK 06 AUDIO    TITLE "Nice To Meet You (Chra’s 'Nice To Have Friends' Remix)"    PERFORMER "Mathias Schaffhauser"    INDEX 01 00:00:00FILE "1-07. Dunck - Stellplatz Der Zukunft.wav" WAVE  TRACK 07 AUDIO    TITLE "Stellplatz Der Zukunft"    PERFORMER "Dunck"    INDEX 01 00:00:00FILE "1-08. Symon Hollner - Deep End.wav" WAVE  TRACK 08 AUDIO    TITLE "Deep End"    PERFORMER "Symon Hollner"    INDEX 01 00:00:00FILE "1-09. Philogresz Presents Dubgray Dust - This Is For My Dutch Crowd.wav" WAVE  TRACK 09 AUDIO    TITLE "This Is For My Dutch Crowd"    PERFORMER "Philogresz Presents Dubgray Dust"    INDEX 01 00:00:00FILE "1-10. Chra - Sakenoiva (Mathias Schaffhauser Remix).wav" WAVE  TRACK 10 AUDIO    TITLE "Sakenoiva (Mathias Schaffhauser Remix)"    PERFORMER "Chra"    INDEX 01 00:00:00FILE "1-11. Mathias Schaffhauser - Pumpe , Duse.wav" WAVE  TRACK 11 AUDIO    TITLE "Pumpe / Duse"    PERFORMER "Mathias Schaffhauser"    INDEX 01 00:00:00FILE "1-12. Markus Guentner - Extravagances Of The Poor.wav" WAVE  TRACK 12 AUDIO    TITLE "Extravagances Of The Poor"    PERFORMER "Markus Guentner"    INDEX 01 00:00:00
Вы не можете начинать темы
Вы не можете отвечать на сообщения
Вы не можете редактировать свои сообщения
Вы не можете удалять свои сообщения
Вы не можете голосовать в опросах
Вы не можете прикреплять файлы к сообщениям
Вы можете скачивать файлы
!ВНИМАНИЕ!

Сайт не предоставляет электронные версии произведений, а занимается лишь коллекционированием и каталогизацией ссылок, присылаемых и публикуемых на форуме нашими читателями. Если вы являетесь правообладателем какого-либо представленного материала и не желаете, чтобы ссылка на него находилась в нашем каталоге, свяжитесь с нами, и мы незамедлительно удалим ее. Файлы для обмена на трекере предоставлены пользователями сайта, и администрация не несет ответственности за их содержание. Просьба не заливать файлы, защищенные авторскими правами, а также файлы нелегального содержания!

Искали программы, игры, дополнения, музыка mp3, аниме, аудио книги, журналы? Добро пожаловать на свободный торрент трекер B-Tor.Ru, у нас можно скачать бесплатно, без смс и регистрации и прочих ограничений лучшие, отборные сборки программ, игр. Скачать торрентом не составит труда даже не опытному пользователю. Раздачи ежедневно обновляются, только лучшие и качественные раздачи, подробные описания и скриншоты. Огромная коллекция программ для работы со звуком, графикой, дизайном, а так же множество плагинов и инструментов к ним с подробной инструкцией и рекомендациями. Прошивки для навигаторов, карты. Разнообразные игры, для Windows, Linux. В коллекцие есть и старые игры любых жанров, Rpg, Action, Shooter, strategy Множество дополнений, модификаций, сценариев для популярных игр в жанре экш, рпг, гонки, стратегии, логические игры. Множество аддонов и сценариев для Microsoft Flight Simulator Большая коллекция книг, учебников. Если нет возможности купить печатное издание - смело скачивайте цифровую версию книги или, быть может, журнала. Не любите читать - можно загрузить бесплатно аудикнигу. Для веб дизайнеров и программистов так же найдется множество специализированного софта, таких как: редакторы с подсветкой, среды программирования, компоненты, системы управления базами данных, разнообразные скрипты и шаблоны. Не так давно у нас появился материал для автолюбителей и владельцев мото - оригинальные и неоригинальные каталоги запчастей, книги и журналы по ремонту и обслуживанию, видеоуроки, статьи по чип тюнингу, прошивкам. Процедура получения контента элементарная, достаточно просто скачать торрент файл и добавить его в загрузку в вашем торрент клиенте. Если у вас нет специального торрент клиента, вы можете его скачать у нас.