Теория Большого Взрыва / The Big Bang Theory / Сезон: 3 / Серии: 1-23 (23) (Марк Сендроуски) [2009-2010, США, Ситком, BDRip 1080p] VO (Кураж-Бамбей) + Subs (Rus, Eng) 

Цитировать
Теория Большого Взрыва / The Big Bang Theory [Season 3]«Smart Is The New Sexy.»- Год выпуска: 2009
Страна: США | Warner Bros. Television
Жанр: Ситком
Продолжительность: ~00:23 x23 | 23 x1.12 ГБ
Перевод: Профессиональный (одноголосый, закадровый) - Кураж-Бамбей
Оригинальная дорожка: Английская
Субтитры: русские, английские-Автор идеи: Чак Лорри
В ролях: Джонни Галаки, Джим Парсонс, Кейли Куоко, Саймон Хелберг, Кунал Найар, Сара Гилберт-Описание: Два блестящих физика, Леонард и Шелдон, «великие умы», которые понимают как «работает вселенная». Но их гениальность ничуть не помогает им общаться с людьми, особенно с женщинами. Всё начинает меняться, когда напротив них поселяется красавица Пенни.
Когда Леонард и Шелдон встречают Пенни, Леонард сразу же начинает интересоваться ею. Он видит в общении с Пенни огромную перспективу… вплоть до любви, однако Шелдон понимает, что мечтам его друга не суждено сбыться.
Стоит также отметить пару странных друзей этих физиков: Воловиц, который любит употреблять фразы на разных языках, включая русский, и Раджеш Кутраппали, теряющий дар речи при виде женщин.-Релиз подготовил: uxTuaHgp
Рип: SlowHD
Все раздачи сериала | | The Big Bang Theory S03 BDRip [720p]-Качество: BDRip [1080p]
Формат: MKV
Видео кодек: H.264
Аудио кодек: AC3
Видео: 1920x1080, 23.976 fps, ~9Mbps, 0.181 bit/pixel
Аудио #1: AC3 2.0, 48 KHz, 192 kbps |Кураж-Бамбей|
Аудио #2: AC3 5.1 48 KHz, 640 kbps |Оригинальная дорожка|-Список серий
  • The Electric Can Opener Fluctuation
  • The Jiminy Conjecture
  • The Gothowitz Deviation
  • The Pirate Solution
  • The Creepy Candy Coating Corollary
  • The Cornhusker Vortex
  • The Guitarist Amplification
  • The Adhesive Duck Deficiency
  • The Vengeance Formulation
  • The Gorilla Experiment
  • The Maternal Congruence
  • The Psychic Vortex
  • The Bozeman Reaction
  • The Einstein Approximation
  • The Large Hadron Collision
  • The Excelsior Acquisition
  • The Precious Fragmentation
  • The Pants Alternative
  • The Wheaton Recurrence
  • The Spaghetti Catalyst
  • The Plimpton Stimulation
  • The Staircase Implementation
  • The Lunar Excitation

    MI

    Format                           : Matroska
    File size                        : 1.49 GiB
    Duration                         : 21mn 35s
    Overall bit rate                 : 9 851 Kbps
    Encoded date                     : UTC 2010-09-20 12:48:32
    Writing application              : mkvmerge v2.5.3 ('Boogie') built on Mar  7 2009 15:00:41
    Writing library                  : libebml v0.7.7 + libmatroska v0.8.1
    Video
    ID                               : 1
    Format                           : AVC
    Format/Info                      : Advanced Video Codec
    Format profile                   : High@L4.1
    Format settings, CABAC           : Yes
    Format settings, ReFrames        : 4 frames
    Format settings, GOP             : M=4, N=32
    Muxing mode                      : Container profile=Unknown@4.1
    Codec ID                         : V_MPEG4/ISO/AVC
    Duration                         : 21mn 35s
    Bit rate                         : 9 018 Kbps
    Width                            : 1 920 pixels
    Height                           : 1 080 pixels
    Display aspect ratio             : 16:9
    Frame rate                       : 23.976 fps
    Color space                      : YUV
    Chroma subsampling               : 4:2:0
    Bit depth                        : 8 bits
    Scan type                        : Progressive
    Bits/(Pixel*Frame)               : 0.181
    Stream size                      : 1.33 GiB (90%)
    Writing library                  : x264 core 104 r1713 c276662
    Encoding settings                : cabac=1 / ref=4 / deblock=1:0:0 / analyse=0x3:0x133 / me=umh / subme=7 / psy=1 / psy_rd=1.00:0.00 / mixed_ref=1 / me_range=16 / chroma_me=1 / trellis=1 / 8x8dct=1 / cqm=0 / deadzone=21,11 / fast_pskip=1 / chroma_qp_offset=-2 / threads=6 / sliced_threads=0 / nr=0 / decimate=0 / interlaced=0 / constrained_intra=0 / bframes=3 / b_pyramid=2 / b_adapt=1 / b_bias=0 / direct=3 / weightb=1 / open_gop=0 / weightp=2 / keyint=240 / keyint_min=24 / scenecut=40 / intra_refresh=0 / rc_lookahead=30 / rc=2pass / mbtree=1 / bitrate=9018 / ratetol=1.0 / qcomp=0.60 / qpmin=10 / qpmax=51 / qpstep=4 / cplxblur=20.0 / qblur=0.5 / ip_ratio=1.40 / aq=1:1.00
    Language                         : English
    Audio #1
    ID                               : 2
    Format                           : AC-3
    Format/Info                      : Audio Coding 3
    Mode extension                   : CM (complete main)
    Codec ID                         : A_AC3
    Duration                         : 21mn 35s
    Bit rate mode                    : Constant
    Bit rate                         : 192 Kbps
    Channel(s)                       : 2 channels
    Channel positions                : Front: L R
    Sampling rate                    : 48.0 KHz
    Bit depth                        : 16 bits
    Stream size                      : 29.6 MiB (2%)
    Title                            : AC3 2.0 @ 192 kbps [Кураж-Бамбей]
    Language                         : Russian
    Audio #2
    ID                               : 3
    Format                           : AC-3
    Format/Info                      : Audio Coding 3
    Mode extension                   : CM (complete main)
    Codec ID                         : A_AC3
    Duration                         : 21mn 35s
    Bit rate mode                    : Constant
    Bit rate                         : 640 Kbps
    Channel(s)                       : 6 channels
    Channel positions                : Front: L C R, Side: L R, LFE
    Sampling rate                    : 48.0 KHz
    Bit depth                        : 16 bits
    Stream size                      : 98.8 MiB (6%)
    Title                            : AC3 5.1 @ 640 kbps
    Language                         : English
    Text #1
    ID                               : 4
    Format                           : UTF-8
    Codec ID                         : S_TEXT/UTF8
    Codec ID/Info                    : UTF-8 Plain Text
    Language                         : English
    Text #2
    ID                               : 5
    Format                           : UTF-8
    Codec ID                         : S_TEXT/UTF8
    Codec ID/Info                    : UTF-8 Plain Text
    Language                         : Russian
    Menu
    00:00:00.000                     : en:00:00:00.000
    00:02:41.244                     : en:00:02:41.244
    00:13:04.617                     : en:00:13:04.617
    00:20:26.225                     : en:00:20:26.225
    00:21:08.601                     : en:00:21:08.601
    -
  • Вы не можете начинать темы
    Вы не можете отвечать на сообщения
    Вы не можете редактировать свои сообщения
    Вы не можете удалять свои сообщения
    Вы не можете голосовать в опросах
    Вы не можете прикреплять файлы к сообщениям
    Вы можете скачивать файлы
    !ВНИМАНИЕ!

    Сайт не предоставляет электронные версии произведений, а занимается лишь коллекционированием и каталогизацией ссылок, присылаемых и публикуемых на форуме нашими читателями. Если вы являетесь правообладателем какого-либо представленного материала и не желаете, чтобы ссылка на него находилась в нашем каталоге, свяжитесь с нами, и мы незамедлительно удалим ее. Файлы для обмена на трекере предоставлены пользователями сайта, и администрация не несет ответственности за их содержание. Просьба не заливать файлы, защищенные авторскими правами, а также файлы нелегального содержания!

    Искали программы, игры, дополнения, музыка mp3, аниме, аудио книги, журналы? Добро пожаловать на свободный торрент трекер B-Tor.Ru, у нас можно скачать бесплатно, без смс и регистрации и прочих ограничений лучшие, отборные сборки программ, игр. Скачать торрентом не составит труда даже не опытному пользователю. Раздачи ежедневно обновляются, только лучшие и качественные раздачи, подробные описания и скриншоты. Огромная коллекция программ для работы со звуком, графикой, дизайном, а так же множество плагинов и инструментов к ним с подробной инструкцией и рекомендациями. Прошивки для навигаторов, карты. Разнообразные игры, для Windows, Linux. В коллекцие есть и старые игры любых жанров, Rpg, Action, Shooter, strategy Множество дополнений, модификаций, сценариев для популярных игр в жанре экш, рпг, гонки, стратегии, логические игры. Множество аддонов и сценариев для Microsoft Flight Simulator Большая коллекция книг, учебников. Если нет возможности купить печатное издание - смело скачивайте цифровую версию книги или, быть может, журнала. Не любите читать - можно загрузить бесплатно аудикнигу. Для веб дизайнеров и программистов так же найдется множество специализированного софта, таких как: редакторы с подсветкой, среды программирования, компоненты, системы управления базами данных, разнообразные скрипты и шаблоны. Не так давно у нас появился материал для автолюбителей и владельцев мото - оригинальные и неоригинальные каталоги запчастей, книги и журналы по ремонту и обслуживанию, видеоуроки, статьи по чип тюнингу, прошивкам. Процедура получения контента элементарная, достаточно просто скачать торрент файл и добавить его в загрузку в вашем торрент клиенте. Если у вас нет специального торрент клиента, вы можете его скачать у нас.