Секретные материалы / The X-Files / Сезон: 10 / Серии: 1-6 из 6 (Крис Картер, Дэрин Морган, Глен Морган) [2016, США, Фантастика, триллер, драма, детектив, WEB-DL 1080p] Dub (ТВ3) + Original + Subs (Eng) 

Цитировать
-Секретные материалы | The X-Files-- • Год выпуска: 2016
• Страна: США
• Жанр: фантастика, триллер, драма, детектив
• Продолжительность: ~ 00:43:00-• Перевод: Профессиональный дублированный - ТВ3-• Режиссёр: Крис Картер, Дэрин Морган, Глен Морган-• В ролях: Дэвид Духовны, Джиллиан Андерсон, Митч Пиледжи, Уильям Б. Дэвис, Робби Амелл, Том Брэйдвуд, Дин Хэглунд, Брюс Харвуд, Джоэл МакХэйл, Лорен Эмброуз-• Описание: Специальные агенты ФБР, Фокс Малдер и Дана Скалли, снова работают вместе, чтобы расследовать странные и необъяснимые дела, связанные с паранормальными явлениями.
- -Ссылка на предыдущие и альтернативные раздачи-• Качество: WEB-DL 1080p
• Формат: MKV
• Видео: AVC, 1916x1076 (16:9), 23.976 fps, ~5000 kbps
• Аудио #1: AC3, 48 kHz, 2 ch, 192 kbps - Rus
• Аудио #2: AC3, 48 kHz, 6 ch, 384 kbps - Eng
• Субтитры: русские форсированные (SRT - внутри контейнера, анимированные ASS - внешним файлом), английские
• Примечание: лучше смотреть со внешними форс. субтитрами, они более полные-

✘ MediaInfo ✘

Общее
Уникальный идентификатор                 : 238694507937566601016584111295367000650 (0xB392E3D9A587DE17B00BE01AD784B24A)
Формат                                   : Matroska
Версия формата                           : Version 2
Размер файла                             : 1,72 Гбайт
Продолжительность                        : 43 м.
Общий поток                              : 5636 Кбит/сек
Дата кодирования                         : UTC 2016-02-23 15:15:34
Программа кодирования                    : mkvmerge v7.9.0 ('Birds') 64bit
Библиотека кодирования                   : libebml v1.3.1 + libmatroska v1.4.2
Видео
Идентификатор                            : 1
Формат                                   : AVC
Формат/Информация                        : Advanced Video Codec
Профиль формата                          : High@L4
Параметр CABAC формата                   : Да
Параметр ReFrames формата                : 4 кадра
Идентификатор кодека                     : V_MPEG4/ISO/AVC
Продолжительность                        : 43 м.
Битрейт                                  : 4948 Кбит/сек
Ширина                                   : 1916 пикселей
Высота                                   : 1076 пикселей
Соотношение сторон                       : 16:9
Режим частоты кадров                     : Постоянный
Частота кадров                           : 23,976 (24000/1001) кадра/сек
Цветовое пространство                    : YUV
Субдискретизация насыщенности            : 4:2:0
Битовая глубина                          : 8 бит
Тип развёртки                            : Прогрессивная
Бит/(Пиксели*Кадры)                      : 0.100
Размер потока                            : 1,51 Гбайт (88%)
Язык                                     : English
Default                                  : Да
Forced                                   : Нет
Цветовой диапазон                        : Limited
Основные цвета                           : BT.709
Характеристики трансфера                 : BT.709
Коэффициенты матрицы                     : BT.709
Аудио #1
Идентификатор                            : 2
Формат                                   : AC-3
Формат/Информация                        : Audio Coding 3
Расширение режима                        : CM (complete main)
Параметр Endianness формата              : Big
Идентификатор кодека                     : A_AC3
Продолжительность                        : 43 м.
Вид битрейта                             : Постоянный
Битрейт                                  : 192 Кбит/сек
Каналы                                   : 2 канала
Расположение каналов                     : Front: L R
Частота                                  : 48,0 КГц
Частота кадров                           : 31,250 кадров/сек (1536 spf)
Метод сжатия                             : С потерями
Размер потока                            : 60,0 Мбайт (3%)
Язык                                     : Russian
Default                                  : Да
Forced                                   : Нет
Аудио #2
Идентификатор                            : 3
Формат                                   : AC-3
Формат/Информация                        : Audio Coding 3
Расширение режима                        : CM (complete main)
Параметр Endianness формата              : Big
Идентификатор кодека                     : A_AC3
Продолжительность                        : 43 м.
Вид битрейта                             : Постоянный
Битрейт                                  : 384 Кбит/сек
Каналы                                   : 6 каналов
Расположение каналов                     : Front: L C R, Side: L R, LFE
Частота                                  : 48,0 КГц
Частота кадров                           : 31,250 кадров/сек (1536 spf)
Метод сжатия                             : С потерями
Задержка видео                           : 16 мс.
Размер потока                            : 120 Мбайт (7%)
Язык                                     : English
Default                                  : Нет
Forced                                   : Нет
Текст #1
Идентификатор                            : 4
Формат                                   : UTF-8
Идентификатор кодека                     : S_TEXT/UTF8
Идентификатор кодека/Информация          : UTF-8 Plain Text
Заголовок                                : FORCED
Язык                                     : Russian
Default                                  : Да
Forced                                   : Нет
Текст #2
Идентификатор                            : 5
Формат                                   : UTF-8
Идентификатор кодека                     : S_TEXT/UTF8
Идентификатор кодека/Информация          : UTF-8 Plain Text
Язык                                     : English
Default                                  : Нет
Forced                                   : Нет

✘ Скриншоты ✘


-
Вы не можете начинать темы
Вы не можете отвечать на сообщения
Вы не можете редактировать свои сообщения
Вы не можете удалять свои сообщения
Вы не можете голосовать в опросах
Вы не можете прикреплять файлы к сообщениям
Вы можете скачивать файлы
!ВНИМАНИЕ!

Сайт не предоставляет электронные версии произведений, а занимается лишь коллекционированием и каталогизацией ссылок, присылаемых и публикуемых на форуме нашими читателями. Если вы являетесь правообладателем какого-либо представленного материала и не желаете, чтобы ссылка на него находилась в нашем каталоге, свяжитесь с нами, и мы незамедлительно удалим ее. Файлы для обмена на трекере предоставлены пользователями сайта, и администрация не несет ответственности за их содержание. Просьба не заливать файлы, защищенные авторскими правами, а также файлы нелегального содержания!

Искали программы, игры, дополнения, музыка mp3, аниме, аудио книги, журналы? Добро пожаловать на свободный торрент трекер B-Tor.Ru, у нас можно скачать бесплатно, без смс и регистрации и прочих ограничений лучшие, отборные сборки программ, игр. Скачать торрентом не составит труда даже не опытному пользователю. Раздачи ежедневно обновляются, только лучшие и качественные раздачи, подробные описания и скриншоты. Огромная коллекция программ для работы со звуком, графикой, дизайном, а так же множество плагинов и инструментов к ним с подробной инструкцией и рекомендациями. Прошивки для навигаторов, карты. Разнообразные игры, для Windows, Linux. В коллекцие есть и старые игры любых жанров, Rpg, Action, Shooter, strategy Множество дополнений, модификаций, сценариев для популярных игр в жанре экш, рпг, гонки, стратегии, логические игры. Множество аддонов и сценариев для Microsoft Flight Simulator Большая коллекция книг, учебников. Если нет возможности купить печатное издание - смело скачивайте цифровую версию книги или, быть может, журнала. Не любите читать - можно загрузить бесплатно аудикнигу. Для веб дизайнеров и программистов так же найдется множество специализированного софта, таких как: редакторы с подсветкой, среды программирования, компоненты, системы управления базами данных, разнообразные скрипты и шаблоны. Не так давно у нас появился материал для автолюбителей и владельцев мото - оригинальные и неоригинальные каталоги запчастей, книги и журналы по ремонту и обслуживанию, видеоуроки, статьи по чип тюнингу, прошивкам. Процедура получения контента элементарная, достаточно просто скачать торрент файл и добавить его в загрузку в вашем торрент клиенте. Если у вас нет специального торрент клиента, вы можете его скачать у нас.