Секретные материалы / The X Files / Сезон: 6 / Серии: 1-22 из 22 (Роберт Мэндел / Robert Mandel) [1998-1999, фантастика, триллер, детектив, HDTV 1080i] Dub (ТВ-3) + DVO (Ren-TV) + MVO (ОРТ, 2+2, СТБ), AVO (Визгунов, Живов) + Original + Sub (rus, eng) 

Цитировать
Секретные материалы / The X Files -Год выпуска: 1998-1999
Страна: США , Канада
Жанр: фантастика, триллер, детектив
Продолжительность: ~ 00:45:00-Перевод:
Дублированный, ТВ-3
Профессиональный двухголосный, РЕН-ТВ
Профессиональный многоголосый, ОРТ
Авторский, Юрий Живов
Авторский, Сергей Визгунов (1-6 серии)
Профессиональный многоголосый, Телеканал 2+2
Профессиональный многоголосый, Телеканал СТБ-Режиссёр: Роберт Мэндел / Robert Mandel
В ролях: Джиллиан Андерсон, Дэвид Духовны, Митч Пилегги, Уильям Б. Дэвис, Николас Ли, Том Брэйдвуд, Дин Хаглунд, Брюс Харвуд-Описание: Специальному агенту Дане Скалли, доктору и преподавателю академии ФБР в Вирджинии, поручают работу в паре с агентом Фоксом Малдером над проектом «Секретные материалы», архивом таинственных, нерешенных дел ФБР, которые зачастую связаны с паранормальными явлениями, случаями вампиризма и оборотничества, нападением генетических мутантов, свидетельствами о похищении людей пришельцами…
Малдер верит в пришельцев и пытается убедить скептика Скалли, что не всё и не всегда поддаётся разумному объяснению. В своих дискуссиях Малдер и Скалли не столько стараются убедить друг друга, сколько получают удовольствие от самого общения. Постепенно первоначальное взаимное недоверие перерастает в дружбу, а чуть позже и в более глубокое чувство.- -Релиз от:
Запись с канала ТВ-3 - sanchez2011
Работа со звуком - SerGV
Источник: 1080i канала 7MAXXHD, Netflix
Огромная благодарность за звук: RoxMarty
Перевод субтитров: lostrator
За релиз благодарим: Елена FOX, frida_85, fsmoke, wizziefoggs, Allo-4ka, osyapka-Все раздачи сериала X-Files / Сэмпл-Качество: HDTV 1080i
Формат: MKV
Видео: 1920x1080 at 23.976 fps, MPEG-4 AVC, ~7188 kbps avg
Аудио #1: Russian: 48 kHz, AC3 Dolby Digital, 2/0 (L,R) ch, ~192 kbps avg |Дублированный, ТВ-3|
Аудио #2: Russian: 48 kHz, AC3 Dolby Digital, 2/0 (L,R) ch, ~192 kbps avg |Профессиональный двухголосный, РЕН-ТВ|
Аудио #3: Russian: 48 kHz, AC3 Dolby Digital, 2/0 (L,R) ch, ~192 kbps avg |Профессиональный многоголосый, ОРТ|
Аудио #4: Russian: 48 kHz, AC3 Dolby Digital, 2/0 (L,R) ch, ~192 kbps avg |Авторский, Юрий Живов|
Аудио #5: Russian: 48 kHz, AC3 Dolby Digital, 2/0 (L,R) ch, ~256 kbps avg |Авторский, Сергей Визгунов| (1-6 серии)
Аудио #6: Ukrainian: 48 kHz, AC3 Dolby Digital, 2/0 (L,R) ch, ~256 kbps avg |Профессиональный многоголосый, Телеканал 2+2|
Аудио #7: Ukrainian: 48 kHz, AC3 Dolby Digital, 2/0 (L,R) ch, ~256 kbps avg |Профессиональный многоголосый, Телеканал СТБ|
Аудио #8: English: 48 kHz, AC3 Dolby Digital, 2/0 (L,R) ch, ~192 kbps avg
Субтитры: Русские, английские

Список серий

01. Начало / The Beginning
02. Гонка / Drive
03. Треугольник / Triangle
04. Зазеркалье / Dreamland
05. Зазеркалье II / Dreamland II
06. Как призраки похитили Рождество / How the Ghosts Stole Christmas
07. Язык нежности / Terms of Endearment
08. Король дождя / The Rain King
09. Резолюция Сената № 819 / S.R. 819
10. Титон / Tithonus
11. Два отца / Two Fathers
12. Один сын / One Son
13. Плохая вода / Agua Mala
14. Понедельник / Monday
15. Аркадия / Arcadia
16. Альфа / Alpha
17. Тревор / Trevor
18. Чудо / Milagro
19. Неестественный / The Unnatural
20. Трое из вида / Three of a Kind
21. Полевой выезд / Field Trip
22. Биогенез / Biogenesis
-

MediaInfo

Общее
Уникальный идентификатор : 185659160404844074357679237038570364499 (0x8BACA7556EBFBE348766257A96FA5E53)
Полное имя : F:\Секретные материалы\The.X-Files.S06.1080i.HDTV.5xRus.2xUkr.1xEng.Subs.CasStudio\The.X-Files.S06E02.1080i.HDTV.5xRus.2xUkr.1xEng.Subs.CasStudio.mkv
Формат : Matroska
Версия формата : Version 4 / Version 2
Размер файла : 2,88 Гбайт
Продолжительность : 45 м.
Общий поток : 9097 Кбит/сек
Название фильма : The X-Files S06E02 - Гонка @ CasStudiо
Дата кодирования : UTC 2015-03-28 03:48:22
Программа кодирования : mkvmerge v7.4.0 ('Circles') 32bit built on Dec 12 2014 12:10:09
Библиотека кодирования : libebml v1.3.0 + libmatroska v1.4.1
Видео
Идентификатор : 1
Формат : AVC
Формат/Информация : Advanced Video Codec
Профиль формата : High@L4.0
Параметр CABAC формата : Да
Параметр ReFrames формата : 3 кадра
Идентификатор кодека : V_MPEG4/ISO/AVC
Продолжительность : 45 м.
Битрейт : 7188 Кбит/сек
Ширина : 1920 пикселей
Высота : 1080 пикселей
Соотношение сторон : 16:9
Режим частоты кадров : Постоянный
Частота кадров : 23,976 кадра/сек
Стандарт вещания : Component
Цветовое пространство : YUV
Субдискретизация насыщенности : 4:2:0
Битовая глубина : 8 бит
Тип развёртки : Чересстрочная
Порядок развёртки : Верхнее поле первое
Бит/(Пиксели*Кадры) : 0.145
Размер потока : 2,27 Гбайт (79%)
Default : Да
Forced : Нет
Основные цвета : BT.709
Характеристики трансфера : BT.709
Коэффициенты матрицы : BT.709
colour_range : Limited
Аудио #1
Идентификатор : 2
Формат : AC-3
Формат/Информация : Audio Coding 3
Расширение режима : CM (complete main)
Параметр Endianness формата : Big
Идентификатор кодека : A_AC3
Продолжительность : 45 м.
Вид битрейта : Постоянный
Битрейт : 192 Кбит/сек
Каналы : 2 канала
Расположение каналов : Front: L R
Частота : 48,0 КГц
Битовая глубина : 16 бит
Метод сжатия : С потерями
Размер потока : 62,2 Мбайт (2%)
Заголовок : TB-3
Язык : Russian
Default : Да
Forced : Нет
Аудио #2
Идентификатор : 3
Формат : AC-3
Формат/Информация : Audio Coding 3
Расширение режима : CM (complete main)
Параметр Endianness формата : Big
Идентификатор кодека : A_AC3
Продолжительность : 45 м.
Вид битрейта : Постоянный
Битрейт : 192 Кбит/сек
Каналы : 2 канала
Расположение каналов : Front: L R
Частота : 48,0 КГц
Битовая глубина : 16 бит
Метод сжатия : С потерями
Размер потока : 62,2 Мбайт (2%)
Заголовок : Ren-TV
Язык : Russian
Default : Нет
Forced : Нет
Аудио #3
Идентификатор : 4
Формат : AC-3
Формат/Информация : Audio Coding 3
Расширение режима : CM (complete main)
Параметр Endianness формата : Big
Идентификатор кодека : A_AC3
Продолжительность : 45 м.
Вид битрейта : Постоянный
Битрейт : 192 Кбит/сек
Каналы : 2 канала
Расположение каналов : Front: L R
Частота : 48,0 КГц
Битовая глубина : 16 бит
Метод сжатия : С потерями
Размер потока : 62,2 Мбайт (2%)
Заголовок : OPT
Язык : Russian
Default : Нет
Forced : Нет
Аудио #4
Идентификатор : 5
Формат : AC-3
Формат/Информация : Audio Coding 3
Расширение режима : CM (complete main)
Параметр Endianness формата : Big
Идентификатор кодека : A_AC3
Продолжительность : 45 м.
Вид битрейта : Постоянный
Битрейт : 192 Кбит/сек
Каналы : 2 канала
Расположение каналов : Front: L R
Частота : 48,0 КГц
Битовая глубина : 16 бит
Метод сжатия : С потерями
Размер потока : 62,2 Мбайт (2%)
Заголовок : Юрий Живов
Язык : Russian
Default : Нет
Forced : Нет
Аудио #5
Идентификатор : 6
Формат : AC-3
Формат/Информация : Audio Coding 3
Расширение режима : CM (complete main)
Параметр Endianness формата : Big
Идентификатор кодека : A_AC3
Продолжительность : 45 м.
Вид битрейта : Постоянный
Битрейт : 256 Кбит/сек
Каналы : 2 канала
Расположение каналов : Front: L R
Частота : 48,0 КГц
Битовая глубина : 16 бит
Метод сжатия : С потерями
Размер потока : 83,0 Мбайт (3%)
Заголовок : Сергей Визгунов
Язык : Russian
Default : Нет
Forced : Нет
Аудио #6
Идентификатор : 7
Формат : AC-3
Формат/Информация : Audio Coding 3
Расширение режима : CM (complete main)
Параметр Endianness формата : Big
Идентификатор кодека : A_AC3
Продолжительность : 45 м.
Вид битрейта : Постоянный
Битрейт : 256 Кбит/сек
Каналы : 2 канала
Расположение каналов : Front: L R
Частота : 48,0 КГц
Битовая глубина : 16 бит
Метод сжатия : С потерями
Размер потока : 83,0 Мбайт (3%)
Заголовок : Телеканал 2+2
Язык : Ukrainian
Default : Нет
Forced : Нет
Аудио #7
Идентификатор : 8
Формат : AC-3
Формат/Информация : Audio Coding 3
Расширение режима : CM (complete main)
Параметр Endianness формата : Big
Идентификатор кодека : A_AC3
Продолжительность : 45 м.
Вид битрейта : Постоянный
Битрейт : 256 Кбит/сек
Каналы : 2 канала
Расположение каналов : Front: L R
Частота : 48,0 КГц
Битовая глубина : 16 бит
Метод сжатия : С потерями
Размер потока : 83,0 Мбайт (3%)
Заголовок : Телеканал СТБ
Язык : Ukrainian
Default : Нет
Forced : Нет
Аудио #8
Идентификатор : 9
Формат : AC-3
Формат/Информация : Audio Coding 3
Профиль формата : Dolby Digital
Расширение режима : CM (complete main)
Параметр Endianness формата : Big
Идентификатор кодека : A_AC3
Продолжительность : 45 м.
Вид битрейта : Постоянный
Битрейт : 192 Кбит/сек
Каналы : 2 канала
Расположение каналов : Front: L R
Частота : 48,0 КГц
Битовая глубина : 16 бит
Метод сжатия : С потерями
Размер потока : 62,2 Мбайт (2%)
Язык : English
Default : Нет
Forced : Нет
Текст #1
Идентификатор : 10
Формат : UTF-8
Идентификатор кодека : S_TEXT/UTF8
Идентификатор кодека/Информация : UTF-8 Plain Text
Язык : Russian
Default : Нет
Forced : Нет
Текст #2
Идентификатор : 11
Формат : UTF-8
Идентификатор кодека : S_TEXT/UTF8
Идентификатор кодека/Информация : UTF-8 Plain Text
Язык : English
Default : Нет
Forced : Нет
-

Скриншоты

7MAXXHD Netflix
-

Раздача ведется путем добавления новых серий

Когда раздача ведётся путём добавления новых серий, при каждом добавлении создётся новый торрент. Чтобы начать докачку новой серии, пользователям необходимо сделать следующее:
1. остановить скачивание,
2. удалить старый торрент у себя из клиента (старые серии удалять не надо),
3. скачать новый торрент и запустить его у себя в клиенте вместо старого, при этом указать клиенту путь в старую папку, куда и должно происходить скачивание новых серий.
Ваш клиент при этом должен произвести хеширование (проверку) старой папки (если не производит сам - помогите ему сделать это), и будет докачивать только те серии, которых у вас ещё нет. Старые серии при этом не удаляются, а продолжают раздаваться!
Eсли вы уже удалили старые серии, то предотвратить повторную закачку старых серий можно, отжав галочку в соответсвующих местах при запуске нового торрента. По возможности, желательно не удалять старые серии как можно дольше, чтобы релизёр не столько продолжал раздавать старые серии, а смог сконцентрироваться на новых.
-
Вы не можете начинать темы
Вы не можете отвечать на сообщения
Вы не можете редактировать свои сообщения
Вы не можете удалять свои сообщения
Вы не можете голосовать в опросах
Вы не можете прикреплять файлы к сообщениям
Вы можете скачивать файлы
!ВНИМАНИЕ!

Сайт не предоставляет электронные версии произведений, а занимается лишь коллекционированием и каталогизацией ссылок, присылаемых и публикуемых на форуме нашими читателями. Если вы являетесь правообладателем какого-либо представленного материала и не желаете, чтобы ссылка на него находилась в нашем каталоге, свяжитесь с нами, и мы незамедлительно удалим ее. Файлы для обмена на трекере предоставлены пользователями сайта, и администрация не несет ответственности за их содержание. Просьба не заливать файлы, защищенные авторскими правами, а также файлы нелегального содержания!

Искали программы, игры, дополнения, музыка mp3, аниме, аудио книги, журналы? Добро пожаловать на свободный торрент трекер B-Tor.Ru, у нас можно скачать бесплатно, без смс и регистрации и прочих ограничений лучшие, отборные сборки программ, игр. Скачать торрентом не составит труда даже не опытному пользователю. Раздачи ежедневно обновляются, только лучшие и качественные раздачи, подробные описания и скриншоты. Огромная коллекция программ для работы со звуком, графикой, дизайном, а так же множество плагинов и инструментов к ним с подробной инструкцией и рекомендациями. Прошивки для навигаторов, карты. Разнообразные игры, для Windows, Linux. В коллекцие есть и старые игры любых жанров, Rpg, Action, Shooter, strategy Множество дополнений, модификаций, сценариев для популярных игр в жанре экш, рпг, гонки, стратегии, логические игры. Множество аддонов и сценариев для Microsoft Flight Simulator Большая коллекция книг, учебников. Если нет возможности купить печатное издание - смело скачивайте цифровую версию книги или, быть может, журнала. Не любите читать - можно загрузить бесплатно аудикнигу. Для веб дизайнеров и программистов так же найдется множество специализированного софта, таких как: редакторы с подсветкой, среды программирования, компоненты, системы управления базами данных, разнообразные скрипты и шаблоны. Не так давно у нас появился материал для автолюбителей и владельцев мото - оригинальные и неоригинальные каталоги запчастей, книги и журналы по ремонту и обслуживанию, видеоуроки, статьи по чип тюнингу, прошивкам. Процедура получения контента элементарная, достаточно просто скачать торрент файл и добавить его в загрузку в вашем торрент клиенте. Если у вас нет специального торрент клиента, вы можете его скачать у нас.