Секретные материалы / The X Files / Сезон: 5 / Серии: 1-20 из 20 (Роберт Мэндел / Robert Mandel) [1997-1998, США, Канада, фантастика, триллер, детектив, HDTV 1080i] Dub (ТВ-3) + DVO (Ren-TV) + MVO (ОРТ) + Original + Sub (rus, eng) 

Цитировать
Секретные материалы / The X-Files

-
Год выпуска: 1997-1998
Страна: США , Канада
Жанр: Фантастика, триллер, детектив
Продолжительность: 20 ~ 00:45:00
-
Перевод 1: Профессиональный (дублированный) ТВ-3
Перевод 2: Профессиональный (двухголосый закадровый) Ren-TV
Перевод 3: Профессиональный (многоголосый закадровый) ОРТ
-
Режиссёр: Роберт Мэндел / Robert Mandel
В ролях: Джиллиан Андерсон, Дэвид Духовны, Митч Пилегги, Уильям Б. Дэвис, Николас Ли, Том Брэйдвуд, Дин Хаглунд, Брюс Харвуд
-
Описание: Специальному агенту Дане Скалли, доктору и преподавателю академии ФБР в Вирджинии, поручают работу в паре с агентом Фоксом Малдером над проектом «Секретные материалы», архивом таинственных, нерешенных дел ФБР, которые зачастую связаны с паранормальными явлениями, случаями вампиризма и оборотничества, нападением генетических мутантов, свидетельствами о похищении людей пришельцами…
Малдер верит в пришельцев и пытается убедить скептика Скалли, что не всё и не всегда поддаётся разумному объяснению. В своих дискуссиях Малдер и Скалли не столько стараются убедить друг друга, сколько получают удовольствие от самого общения. Постепенно первоначальное взаимное недоверие перерастает в дружбу, а чуть позже и в более глубокое чувство.
-

-
Доп. информация:
Сборка -
Запись с канала ТВ-3 - sanchez2011
Работа со звуком и тайминг субтитров - super12308
Источник - 1080i канала 7MAXXHD
Огромная благодарность за звук ОРТ и Ren-TV - RoxMarty
-
Ссылка на все раздачи сериала / Сэмпл
-
Качество: HDTV 1080i
Контейнер: MKV
Видео: MPEG-4 AVC, ~ 7000 kbps, 1920x1080, 23.976 fps, 0.128 bit/pixel
Аудио #1: 48 kHz, AC3 Dolby Digital, 2/0 (L,R) ch, ~192 kbps - TB-3
Аудио #2: 48 kHz, AC3 Dolby Digital, 2/0 (L,R) ch, ~192 kbps - Ren-TV
Аудио #3: 48 kHz, AC3 Dolby Digital, 2/0 (L,R) ch, ~192 kbps - ОРТ
Аудио #4: 48 kHz, AC3 Dolby Digital, 2/0 (L,R) ch, ~192 kbps - Оригинал
Субтитры: русские, английские
-

Список серий

01. Возвращение. Часть 1
02. Возвращение. Часть 2
03. Необычные подозреваемые
04. Окольный путь
05. Постмодернистский Прометей
06. Рождественский гимн
07. Эмили
08. Охота на лис
09. Гены шизофреника
10. Чинга
11. Код для уничтожения
12. Плохая кровь
13. Пациент «Икс»
14. Красное и чёрное
15. Странники
16. Око разума
17. Все души
18. Вариант «Блеф»
19. Обоюдное сумасшествие
20. Конец

MediaInfo

Общее
Уникальный идентификатор : 204305718305358484158442724953682665255 (0x99B3D99E25A8C00AAD51088331ACDF27)
Полное имя : D:\The.X-Files.S05.HDTV.1080i\the-x-files-501.mkv
Формат : Matroska
Версия формата : Version 4 / Version 2
Размер файла : 2,25 Гбайт
Продолжительность : 44 м.
Общий поток : 7299 Кбит/сек
Дата кодирования : UTC 2015-01-03 21:59:04
Программа кодирования : mkvmerge v7.4.0 ('Circles') 32bit built on Dec 12 2014 12:10:09
Библиотека кодирования : libebml v1.3.0 + libmatroska v1.4.1
DURATION : 00:44:02.577000000
NUMBER_OF_FRAMES : 464
NUMBER_OF_BYTES : 24817
_STATISTICS_WRITING_APP : mkvmerge v7.4.0 ('Circles') 32bit built on Dec 12 2014 12:10:09
_STATISTICS_WRITING_DATE_UTC : 2015-01-03 21:59:04
_STATISTICS_TAGS : BPS DURATION NUMBER_OF_FRAMES NUMBER_OF_BYTES
Видео
Идентификатор : 1
Формат : AVC
Формат/Информация : Advanced Video Codec
Профиль формата : High@L4.0
Параметр CABAC формата : Да
Параметр ReFrames формата : 3 кадра
Идентификатор кодека : V_MPEG4/ISO/AVC
Продолжительность : 44 м.
Битрейт : 6886 Кбит/сек
Ширина : 1920 пикселей
Высота : 1080 пикселей
Соотношение сторон : 16:9
Режим частоты кадров : Постоянный
Частота кадров : 23,976 кадра/сек
Стандарт вещания : Component
Цветовое пространство : YUV
Субдискретизация насыщенности : 4:2:0
Битовая глубина : 8 бит
Тип развёртки : Чересстрочная
Порядок развёртки : Верхнее поле первое
Бит/(Пиксели*Кадры) : 0.128
Размер потока : 1,97 Гбайт (87%)
Default : Да
Forced : Нет
Основные цвета : BT.709
Характеристики трансфера : BT.709
Коэффициенты матрицы : BT.709
DURATION : 00:44:10.043000000
NUMBER_OF_FRAMES : 127074
NUMBER_OF_BYTES : 2162088670
_STATISTICS_WRITING_APP : mkvmerge v7.4.0 ('Circles') 32bit built on Dec 12 2014 12:10:09
_STATISTICS_WRITING_DATE_UTC : 2015-01-03 21:59:04
_STATISTICS_TAGS : BPS DURATION NUMBER_OF_FRAMES NUMBER_OF_BYTES
Аудио #1
Идентификатор : 2
Формат : AC-3
Формат/Информация : Audio Coding 3
Расширение режима : CM (complete main)
Параметр Endianness формата : Big
Идентификатор кодека : A_AC3
Продолжительность : 44 м.
Вид битрейта : Постоянный
Битрейт : 192 Кбит/сек
Каналы : 2 канала
Расположение каналов : Front: L R
Частота : 48,0 КГц
Битовая глубина : 16 бит
Метод сжатия : С потерями
Размер потока : 60,7 Мбайт (3%)
Заголовок : ТВ-3
Язык : Russian
Default : Да
Forced : Нет
Аудио #2
Идентификатор : 3
Формат : AC-3
Формат/Информация : Audio Coding 3
Расширение режима : CM (complete main)
Параметр Endianness формата : Big
Идентификатор кодека : A_AC3
Продолжительность : 44 м.
Вид битрейта : Постоянный
Битрейт : 192 Кбит/сек
Каналы : 2 канала
Расположение каналов : Front: L R
Частота : 48,0 КГц
Битовая глубина : 16 бит
Метод сжатия : С потерями
Размер потока : 60,7 Мбайт (3%)
Заголовок : Ren-TV
Язык : Russian
Default : Нет
Forced : Нет
Аудио #3
Идентификатор : 4
Формат : AC-3
Формат/Информация : Audio Coding 3
Расширение режима : CM (complete main)
Параметр Endianness формата : Big
Идентификатор кодека : A_AC3
Продолжительность : 44 м.
Вид битрейта : Постоянный
Битрейт : 192 Кбит/сек
Каналы : 2 канала
Расположение каналов : Front: L R
Частота : 48,0 КГц
Битовая глубина : 16 бит
Метод сжатия : С потерями
Размер потока : 60,7 Мбайт (3%)
Заголовок : ОРТ
Язык : Russian
Default : Нет
Forced : Нет
Аудио #4
Идентификатор : 5
Формат : AC-3
Формат/Информация : Audio Coding 3
Профиль формата : Dolby Digital
Расширение режима : CM (complete main)
Параметр Endianness формата : Big
Идентификатор кодека : A_AC3
Продолжительность : 44 м.
Вид битрейта : Постоянный
Битрейт : 192 Кбит/сек
Каналы : 2 канала
Расположение каналов : Front: L R
Частота : 48,0 КГц
Битовая глубина : 16 бит
Метод сжатия : С потерями
Размер потока : 60,7 Мбайт (3%)
Язык : English
Default : Нет
Forced : Нет
Текст #1
Идентификатор : 6
Формат : UTF-8
Идентификатор кодека : S_TEXT/UTF8
Идентификатор кодека/Информация : UTF-8 Plain Text
Заголовок : sub
Язык : Russian
Default : Нет
Forced : Нет
Текст #2
Идентификатор : 7
Формат : UTF-8
Идентификатор кодека : S_TEXT/UTF8
Идентификатор кодека/Информация : UTF-8 Plain Text
Заголовок : sub
Язык : English
Default : Нет
Forced : Нет

Скриншоты

Внимание!

Внимание! Раздача ведётся путём добавления новых серий; при каждом добавлении создаётся новый торрент. Чтобы начать докачку новой серии, пользователям необходимо сделать следующее:
(1) остановить скачивание,
(2) удалить старый торрент у себя из клиента (старые серии удалять не надо),
(3) скачать новый торрент и запустить его у себя в клиенте вместо старого, при этом указать клиенту путь в старую папку куда и должно происходить скачивание новых серий.
Ваш клиент при этом должен произвести хеширование (проверку) старой папки (если не производит сам - помогите ему сделать это), и будет докачивать только те серии которых у вас ещё нет. Старые серии при этом не удаляются, а продолжают раздаваться!
Eсли вы уже удалили старые серии, то предотвратить повторную закачку старых серий можно, отжав галочку в соответствующих местах при запуске нового торрента. По возможности, желательно не удалять старые серии как можно дольше чтобы релизёр не столько продолжал раздавать старые серии, а смог сконцентрироваться на новых.
-
Вы не можете начинать темы
Вы не можете отвечать на сообщения
Вы не можете редактировать свои сообщения
Вы не можете удалять свои сообщения
Вы не можете голосовать в опросах
Вы не можете прикреплять файлы к сообщениям
Вы можете скачивать файлы
!ВНИМАНИЕ!

Сайт не предоставляет электронные версии произведений, а занимается лишь коллекционированием и каталогизацией ссылок, присылаемых и публикуемых на форуме нашими читателями. Если вы являетесь правообладателем какого-либо представленного материала и не желаете, чтобы ссылка на него находилась в нашем каталоге, свяжитесь с нами, и мы незамедлительно удалим ее. Файлы для обмена на трекере предоставлены пользователями сайта, и администрация не несет ответственности за их содержание. Просьба не заливать файлы, защищенные авторскими правами, а также файлы нелегального содержания!

Искали программы, игры, дополнения, музыка mp3, аниме, аудио книги, журналы? Добро пожаловать на свободный торрент трекер B-Tor.Ru, у нас можно скачать бесплатно, без смс и регистрации и прочих ограничений лучшие, отборные сборки программ, игр. Скачать торрентом не составит труда даже не опытному пользователю. Раздачи ежедневно обновляются, только лучшие и качественные раздачи, подробные описания и скриншоты. Огромная коллекция программ для работы со звуком, графикой, дизайном, а так же множество плагинов и инструментов к ним с подробной инструкцией и рекомендациями. Прошивки для навигаторов, карты. Разнообразные игры, для Windows, Linux. В коллекцие есть и старые игры любых жанров, Rpg, Action, Shooter, strategy Множество дополнений, модификаций, сценариев для популярных игр в жанре экш, рпг, гонки, стратегии, логические игры. Множество аддонов и сценариев для Microsoft Flight Simulator Большая коллекция книг, учебников. Если нет возможности купить печатное издание - смело скачивайте цифровую версию книги или, быть может, журнала. Не любите читать - можно загрузить бесплатно аудикнигу. Для веб дизайнеров и программистов так же найдется множество специализированного софта, таких как: редакторы с подсветкой, среды программирования, компоненты, системы управления базами данных, разнообразные скрипты и шаблоны. Не так давно у нас появился материал для автолюбителей и владельцев мото - оригинальные и неоригинальные каталоги запчастей, книги и журналы по ремонту и обслуживанию, видеоуроки, статьи по чип тюнингу, прошивкам. Процедура получения контента элементарная, достаточно просто скачать торрент файл и добавить его в загрузку в вашем торрент клиенте. Если у вас нет специального торрент клиента, вы можете его скачать у нас.