(IDM, Experimental, Electronic) [CD] Nikakoi - Sestrichka - 2002, FLAC (tracks+.cue), lossless 

Цитировать
Nikakoi - Sestrichka
Жанр: IDM, Experimental, Electronic
Носитель: CD
Страна-производитель диска (релиза): Germany
Год издания: 2002
Издатель (лейбл): WMF Records ‎
Номер по каталогу: WMFREC CD007
Страна исполнителя (группы): Georgia
Аудиокодек: FLAC (*.flac)
Тип рипа: tracks+.cue
Битрейт аудио: lossless
Продолжительность: 01:05:14
Источник (релизер): web
Наличие сканов в содержимом раздачи: нет
Треклист:
01. Climb
02. Adgilcx
03. Mtavary
04. PP (Featuring – Tusia)
05. Teess
06. Dzzenn
07. City Lights [Tutta2] (Featuring – Tusia)
08. Maia
09. Saldance
10. Mtvare (Featuring – Tusia)
11. Sestrichka/Bratishka
12. Adamy
13. Manglisi
14. Bavshrevi
15. Orudila

Лог создания рипа

X Lossless Decoder version 20101128 (126.0)
XLD extraction logfile from 2010-12-30 18:27:36 +0100
Nikakoi / Sestrichka
Used drive : PIONEER DVD-RW DVR-117D (revision B705)
Ripper mode : CDParanoia III 10.2Disable audio cache : OK for the drive with a cache less than 2750KiBMake use of C2 pointers : NORead offset correction : 96Max retry count : 100Gap status : Analyzed, Appended
TOC of the extracted CD Track | Start | Length | Start sector | End sector --------------------------------------------------------- 1 | 00:00:00 | 04:42:32 | 0 | 21181 2 | 04:42:32 | 03:09:48 | 21182 | 35404 3 | 07:52:05 | 04:32:43 | 35405 | 55847 4 | 12:24:48 | 03:31:05 | 55848 | 71677 5 | 15:55:53 | 03:02:17 | 71678 | 85344 6 | 18:57:70 | 03:47:42 | 85345 | 102411 7 | 22:45:37 | 04:55:41 | 102412 | 124577 8 | 27:41:03 | 05:09:38 | 124578 | 147790 9 | 32:50:41 | 06:27:00 | 147791 | 176815 10 | 39:17:41 | 03:01:70 | 176816 | 190460 11 | 42:19:36 | 05:04:41 | 190461 | 213301 12 | 47:24:02 | 03:44:54 | 213302 | 230155 13 | 51:08:56 | 04:37:06 | 230156 | 250936 14 | 55:45:62 | 05:40:37 | 250937 | 276473 15 | 61:26:24 | 03:48:49 | 276474 | 293622
List of alternate offset correction values # | Absolute | Relative | Confidence ------------------------------------------ 1 | 48 | -48 | 3
AccurateRip Summary Track 01 : OK (confidence 3, with different offset) Track 02 : OK (confidence 3, with different offset) Track 03 : OK (confidence 3, with different offset) Track 04 : OK (confidence 3, with different offset) Track 05 : OK (confidence 3, with different offset) Track 06 : OK (confidence 3, with different offset) Track 07 : OK (confidence 3, with different offset) Track 08 : OK (confidence 3, with different offset) Track 09 : OK (confidence 3, with different offset) Track 10 : OK (confidence 3, with different offset) Track 11 : OK (confidence 3, with different offset) Track 12 : OK (confidence 3, with different offset) Track 13 : OK (confidence 3, with different offset) Track 14 : OK (confidence 3, with different offset) Track 15 : OK (confidence 2, with different offset) ->All tracks accurately ripped.
All Tracks Album gain : -8.14 dB Peak : 1.000000 Statistics Read error : 0 Skipped (treated as error) : 0 Edge jitter error (maybe fixed) : 0 Atom jitter error (maybe fixed) : 0 Drift error (maybe fixed) : 0 Dropped bytes error (maybe fixed) : 0 Duplicated bytes error (maybe fixed) : 0
Track 01 Filename : /Users/Shared/Rip Flac/Nikakoi - Sestrichka (2002) [FLAC]/01 Climb.flac Pre-gap length : 00:02:00
Track gain : -7.05 dB Peak : 0.999878 CRC32 hash (test run) : B936031B CRC32 hash : B936031B CRC32 hash (skip zero) : F85D9097 AccurateRip signature : 029F4B99 ->Accurately ripped! (confidence 3) (matched with the different offset correction value; calculated using an additional offset of -48; the signature after correction is: 90B2D697) Statistics Read error : 0 Skipped (treated as error) : 0 Edge jitter error (maybe fixed) : 0 Atom jitter error (maybe fixed) : 0 Drift error (maybe fixed) : 0 Dropped bytes error (maybe fixed) : 0 Duplicated bytes error (maybe fixed) : 0 Inconsistency in error sectors : 0
Track 02 Filename : /Users/Shared/Rip Flac/Nikakoi - Sestrichka (2002) [FLAC]/02 adgilCX.flac Pre-gap length : 00:01:00
Track gain : -6.08 dB Peak : 0.999908 CRC32 hash (test run) : BBEB0361 CRC32 hash : BBEB0361 CRC32 hash (skip zero) : 7723CD0E AccurateRip signature : 09606BE1 ->Accurately ripped! (confidence 3) (matched with the different offset correction value; calculated using an additional offset of -48; the signature after correction is: 9507F7D1) Statistics Read error : 0 Skipped (treated as error) : 0 Edge jitter error (maybe fixed) : 0 Atom jitter error (maybe fixed) : 0 Drift error (maybe fixed) : 0 Dropped bytes error (maybe fixed) : 0 Duplicated bytes error (maybe fixed) : 0 Inconsistency in error sectors : 0
Track 03 Filename : /Users/Shared/Rip Flac/Nikakoi - Sestrichka (2002) [FLAC]/03 Mtavary.flac Pre-gap length : 00:03:18
Track gain : -10.16 dB Peak : 0.999908 CRC32 hash (test run) : 4A27D100 CRC32 hash : 4A27D100 CRC32 hash (skip zero) : 92D01803 AccurateRip signature : 448184EA ->Accurately ripped! (confidence 3) (matched with the different offset correction value; calculated using an additional offset of -48; the signature after correction is: 5535FDDA) Statistics Read error : 0 Skipped (treated as error) : 0 Edge jitter error (maybe fixed) : 0 Atom jitter error (maybe fixed) : 0 Drift error (maybe fixed) : 0 Dropped bytes error (maybe fixed) : 0 Duplicated bytes error (maybe fixed) : 0 Inconsistency in error sectors : 0
Track 04 Filename : /Users/Shared/Rip Flac/Nikakoi - Sestrichka (2002) [FLAC]/04 Pp.flac Pre-gap length : 00:02:61
Track gain : -7.40 dB Peak : 0.999908 CRC32 hash (test run) : 225CF3F4 CRC32 hash : 225CF3F4 CRC32 hash (skip zero) : 20EDDF7C AccurateRip signature : 77D17EDB ->Accurately ripped! (confidence 3) (matched with the different offset correction value; calculated using an additional offset of -48; the signature after correction is: DCB0D9DB) Statistics Read error : 0 Skipped (treated as error) : 0 Edge jitter error (maybe fixed) : 0 Atom jitter error (maybe fixed) : 0 Drift error (maybe fixed) : 0 Dropped bytes error (maybe fixed) : 0 Duplicated bytes error (maybe fixed) : 0 Inconsistency in error sectors : 0
Track 05 Filename : /Users/Shared/Rip Flac/Nikakoi - Sestrichka (2002) [FLAC]/05 Teess.flac Pre-gap length : 00:04:07
Track gain : -3.21 dB Peak : 0.819031 CRC32 hash (test run) : CFDE2BC2 CRC32 hash : CFDE2BC2 CRC32 hash (skip zero) : 13EF2FF2 AccurateRip signature : 16AD5641 ->Accurately ripped! (confidence 3) (matched with the different offset correction value; calculated using an additional offset of -48; the signature after correction is: B8204A11) Statistics Read error : 0 Skipped (treated as error) : 0 Edge jitter error (maybe fixed) : 0 Atom jitter error (maybe fixed) : 0 Drift error (maybe fixed) : 0 Dropped bytes error (maybe fixed) : 0 Duplicated bytes error (maybe fixed) : 0 Inconsistency in error sectors : 0
Track 06 Filename : /Users/Shared/Rip Flac/Nikakoi - Sestrichka (2002) [FLAC]/06 Dzzenn.flac Pre-gap length : 00:03:10
Track gain : -9.97 dB Peak : 0.999878 CRC32 hash (test run) : 510BD0FD CRC32 hash : 510BD0FD CRC32 hash (skip zero) : 616360EC AccurateRip signature : A9E4DBD5 ->Accurately ripped! (confidence 3) (matched with the different offset correction value; calculated using an additional offset of -48; the signature after correction is: DE2889C5) Statistics Read error : 0 Skipped (treated as error) : 0 Edge jitter error (maybe fixed) : 0 Atom jitter error (maybe fixed) : 0 Drift error (maybe fixed) : 0 Dropped bytes error (maybe fixed) : 0 Duplicated bytes error (maybe fixed) : 0 Inconsistency in error sectors : 0
Track 07 Filename : /Users/Shared/Rip Flac/Nikakoi - Sestrichka (2002) [FLAC]/07 City Lights [Tutta2].flac Pre-gap length : 00:03:28
Track gain : -8.99 dB Peak : 0.999908 CRC32 hash (test run) : 96BD36A2 CRC32 hash : 96BD36A2 CRC32 hash (skip zero) : D14D375B AccurateRip signature : E6289E2E ->Accurately ripped! (confidence 3) (matched with the different offset correction value; calculated using an additional offset of -48; the signature after correction is: 0618119E) Statistics Read error : 0 Skipped (treated as error) : 0 Edge jitter error (maybe fixed) : 0 Atom jitter error (maybe fixed) : 0 Drift error (maybe fixed) : 0 Dropped bytes error (maybe fixed) : 0 Duplicated bytes error (maybe fixed) : 0 Inconsistency in error sectors : 0
Track 08 Filename : /Users/Shared/Rip Flac/Nikakoi - Sestrichka (2002) [FLAC]/08 Maia.flac Pre-gap length : 00:02:56
Track gain : -7.07 dB Peak : 0.998993 CRC32 hash (test run) : B0745D29 CRC32 hash : B0745D29 CRC32 hash (skip zero) : 22AA0C73 AccurateRip signature : 88F32242 ->Accurately ripped! (confidence 3) (matched with the different offset correction value; calculated using an additional offset of -48; the signature after correction is: F3947AA2) Statistics Read error : 0 Skipped (treated as error) : 0 Edge jitter error (maybe fixed) : 0 Atom jitter error (maybe fixed) : 0 Drift error (maybe fixed) : 0 Dropped bytes error (maybe fixed) : 0 Duplicated bytes error (maybe fixed) : 0 Inconsistency in error sectors : 0
Track 09 Filename : /Users/Shared/Rip Flac/Nikakoi - Sestrichka (2002) [FLAC]/09 Maldance.flac Pre-gap length : 00:01:72
Track gain : -7.94 dB Peak : 0.999908 CRC32 hash (test run) : 45FC4C63 CRC32 hash : 45FC4C63 CRC32 hash (skip zero) : F8F4091E AccurateRip signature : 3350F2B7 ->Accurately ripped! (confidence 3) (matched with the different offset correction value; calculated using an additional offset of -48; the signature after correction is: F8D25BF7) Statistics Read error : 0 Skipped (treated as error) : 0 Edge jitter error (maybe fixed) : 0 Atom jitter error (maybe fixed) : 0 Drift error (maybe fixed) : 0 Dropped bytes error (maybe fixed) : 0 Duplicated bytes error (maybe fixed) : 0 Inconsistency in error sectors : 0
Track 10 Filename : /Users/Shared/Rip Flac/Nikakoi - Sestrichka (2002) [FLAC]/10 MTVare.flac Pre-gap length : 00:02:74
Track gain : -8.19 dB Peak : 0.845367 CRC32 hash (test run) : CCC06BB7 CRC32 hash : CCC06BB7 CRC32 hash (skip zero) : 3A9981B4 AccurateRip signature : D0CB39F5 ->Accurately ripped! (confidence 3) (matched with the different offset correction value; calculated using an additional offset of -48; the signature after correction is: C6A43CC5) Statistics Read error : 0 Skipped (treated as error) : 0 Edge jitter error (maybe fixed) : 0 Atom jitter error (maybe fixed) : 0 Drift error (maybe fixed) : 0 Dropped bytes error (maybe fixed) : 0 Duplicated bytes error (maybe fixed) : 0 Inconsistency in error sectors : 0
Track 11 Filename : /Users/Shared/Rip Flac/Nikakoi - Sestrichka (2002) [FLAC]/11 Sestrichka-Bratishka.flac Pre-gap length : 00:03:32
Track gain : -6.82 dB Peak : 0.840637 CRC32 hash (test run) : A9B3B722 CRC32 hash : A9B3B722 CRC32 hash (skip zero) : 456931BD AccurateRip signature : 74191135 ->Accurately ripped! (confidence 3) (matched with the different offset correction value; calculated using an additional offset of -48; the signature after correction is: 7516C935) Statistics Read error : 0 Skipped (treated as error) : 0 Edge jitter error (maybe fixed) : 0 Atom jitter error (maybe fixed) : 0 Drift error (maybe fixed) : 0 Dropped bytes error (maybe fixed) : 0 Duplicated bytes error (maybe fixed) : 0 Inconsistency in error sectors : 0
Track 12 Filename : /Users/Shared/Rip Flac/Nikakoi - Sestrichka (2002) [FLAC]/12 Adamy.flac Pre-gap length : 00:02:14
Track gain : -6.38 dB Peak : 0.997009 CRC32 hash (test run) : 1D6D8510 CRC32 hash : 1D6D8510 CRC32 hash (skip zero) : A65CFE99 AccurateRip signature : 1F617817 ->Accurately ripped! (confidence 3) (matched with the different offset correction value; calculated using an additional offset of -48; the signature after correction is: 9B4620C7) Statistics Read error : 0 Skipped (treated as error) : 0 Edge jitter error (maybe fixed) : 0 Atom jitter error (maybe fixed) : 0 Drift error (maybe fixed) : 0 Dropped bytes error (maybe fixed) : 0 Duplicated bytes error (maybe fixed) : 0 Inconsistency in error sectors : 0
Track 13 Filename : /Users/Shared/Rip Flac/Nikakoi - Sestrichka (2002) [FLAC]/13 Manglisi.flac Pre-gap length : 00:02:08
Track gain : -8.80 dB Peak : 0.871033 CRC32 hash (test run) : 36DB8E7A CRC32 hash : 36DB8E7A CRC32 hash (skip zero) : 061074FE AccurateRip signature : 98E58393 ->Accurately ripped! (confidence 3) (matched with the different offset correction value; calculated using an additional offset of -48; the signature after correction is: 161A9DF3) Statistics Read error : 0 Skipped (treated as error) : 0 Edge jitter error (maybe fixed) : 0 Atom jitter error (maybe fixed) : 0 Drift error (maybe fixed) : 0 Dropped bytes error (maybe fixed) : 0 Duplicated bytes error (maybe fixed) : 0 Inconsistency in error sectors : 0
Track 14 Filename : /Users/Shared/Rip Flac/Nikakoi - Sestrichka (2002) [FLAC]/14 Bavshwebi.flac Pre-gap length : 00:01:37
Track gain : -7.59 dB Peak : 1.000000 CRC32 hash (test run) : 8691ABFF CRC32 hash : 8691ABFF CRC32 hash (skip zero) : 28AC5A1B AccurateRip signature : 7A5D201E ->Accurately ripped! (confidence 3) (matched with the different offset correction value; calculated using an additional offset of -48; the signature after correction is: 2BDA356E) Statistics Read error : 0 Skipped (treated as error) : 0 Edge jitter error (maybe fixed) : 0 Atom jitter error (maybe fixed) : 0 Drift error (maybe fixed) : 0 Dropped bytes error (maybe fixed) : 0 Duplicated bytes error (maybe fixed) : 0 Inconsistency in error sectors : 0
Track 15 Filename : /Users/Shared/Rip Flac/Nikakoi - Sestrichka (2002) [FLAC]/15 Orudila.flac Pre-gap length : 00:03:22
Track gain : -8.17 dB Peak : 0.813904 CRC32 hash (test run) : AFD6B2FC CRC32 hash : AFD6B2FC CRC32 hash (skip zero) : 8EB3F62D AccurateRip signature : DC5F6839 ->Accurately ripped! (confidence 2) (matched with the different offset correction value; calculated using an additional offset of -48; the signature after correction is: D58ECE8C) Statistics Read error : 0 Skipped (treated as error) : 0 Edge jitter error (maybe fixed) : 0 Atom jitter error (maybe fixed) : 0 Drift error (maybe fixed) : 0 Dropped bytes error (maybe fixed) : 0 Duplicated bytes error (maybe fixed) : 0 Inconsistency in error sectors : 0
No errors occurred
End of status report

Содержание индексной карты (.CUE)

TITLE "Sestrichka"PERFORMER "Nikakoi"REM GENRE "Electronic"REM DATE 2002REM DISCID EE0F4A0FFILE "01 Climb.wav" WAVE  TRACK 01 AUDIO    TITLE "Climb"    SONGWRITER "Nika Machaidze"    INDEX 01 00:00:00  TRACK 02 AUDIO    TITLE "adgilCX"    SONGWRITER "Nika Machaidze"    INDEX 00 04:41:32FILE "02 adgilCX.wav" WAVE    INDEX 01 00:00:00  TRACK 03 AUDIO    TITLE "Mtavary"    SONGWRITER "Nika Machaidze"    INDEX 00 03:06:30FILE "03 Mtavary.wav" WAVE    INDEX 01 00:00:00  TRACK 04 AUDIO    TITLE "Pp"    SONGWRITER "Nika Machaidze"    INDEX 00 04:29:57FILE "04 Pp.wav" WAVE    INDEX 01 00:00:00  TRACK 05 AUDIO    TITLE "Teess"    SONGWRITER "Nika Machaidze"    INDEX 00 03:26:73FILE "05 Teess.wav" WAVE    INDEX 01 00:00:00  TRACK 06 AUDIO    TITLE "Dzzenn"    SONGWRITER "Nika Machaidze"    INDEX 00 02:59:07FILE "06 Dzzenn.wav" WAVE    INDEX 01 00:00:00  TRACK 07 AUDIO    TITLE "City Lights [Tutta2]"    SONGWRITER "Nika Machaidze"    INDEX 00 03:44:14FILE "07 City Lights [Tutta2].wav" WAVE    INDEX 01 00:00:00  TRACK 08 AUDIO    TITLE "Maia"    SONGWRITER "Nika Machaidze"    INDEX 00 04:52:60FILE "08 Maia.wav" WAVE    INDEX 01 00:00:00  TRACK 09 AUDIO    TITLE "Maldance"    SONGWRITER "Nika Machaidze"    INDEX 00 05:07:41FILE "09 Maldance.wav" WAVE    INDEX 01 00:00:00  TRACK 10 AUDIO    TITLE "MTVare"    SONGWRITER "Nika Machaidze"    INDEX 00 06:24:01FILE "10 MTVare.wav" WAVE    INDEX 01 00:00:00  TRACK 11 AUDIO    TITLE "Sestrichka-Bratishka"    SONGWRITER "Nika Machaidze"    INDEX 00 02:58:38FILE "11 Sestrichka-Bratishka.wav" WAVE    INDEX 01 00:00:00  TRACK 12 AUDIO    TITLE "Adamy"    SONGWRITER "Nika Machaidze"    INDEX 00 05:02:27FILE "12 Adamy.wav" WAVE    INDEX 01 00:00:00  TRACK 13 AUDIO    TITLE "Manglisi"    SONGWRITER "Nika Machaidze"    INDEX 00 03:42:46FILE "13 Manglisi.wav" WAVE    INDEX 01 00:00:00  TRACK 14 AUDIO    TITLE "Bavshwebi"    SONGWRITER "Nika Machaidze"    INDEX 00 04:35:44FILE "14 Bavshwebi.wav" WAVE    INDEX 01 00:00:00  TRACK 15 AUDIO    TITLE "Orudila"    SONGWRITER "Nika Machaidze"    INDEX 00 05:37:15FILE "15 Orudila.wav" WAVE    INDEX 01 00:00:00

Об альбоме (сборнике)

Lyrics By, Vocals – Tusia Beridze
Mastered By – Bo@calyx.mastering*
Painting [Original] – Maia Sumbadze*
Written-By, Producer – Nika Machaidze
Вы не можете начинать темы
Вы не можете отвечать на сообщения
Вы не можете редактировать свои сообщения
Вы не можете удалять свои сообщения
Вы не можете голосовать в опросах
Вы не можете прикреплять файлы к сообщениям
Вы можете скачивать файлы
!ВНИМАНИЕ!

Сайт не предоставляет электронные версии произведений, а занимается лишь коллекционированием и каталогизацией ссылок, присылаемых и публикуемых на форуме нашими читателями. Если вы являетесь правообладателем какого-либо представленного материала и не желаете, чтобы ссылка на него находилась в нашем каталоге, свяжитесь с нами, и мы незамедлительно удалим ее. Файлы для обмена на трекере предоставлены пользователями сайта, и администрация не несет ответственности за их содержание. Просьба не заливать файлы, защищенные авторскими правами, а также файлы нелегального содержания!

Искали программы, игры, дополнения, музыка mp3, аниме, аудио книги, журналы? Добро пожаловать на свободный торрент трекер B-Tor.Ru, у нас можно скачать бесплатно, без смс и регистрации и прочих ограничений лучшие, отборные сборки программ, игр. Скачать торрентом не составит труда даже не опытному пользователю. Раздачи ежедневно обновляются, только лучшие и качественные раздачи, подробные описания и скриншоты. Огромная коллекция программ для работы со звуком, графикой, дизайном, а так же множество плагинов и инструментов к ним с подробной инструкцией и рекомендациями. Прошивки для навигаторов, карты. Разнообразные игры, для Windows, Linux. В коллекцие есть и старые игры любых жанров, Rpg, Action, Shooter, strategy Множество дополнений, модификаций, сценариев для популярных игр в жанре экш, рпг, гонки, стратегии, логические игры. Множество аддонов и сценариев для Microsoft Flight Simulator Большая коллекция книг, учебников. Если нет возможности купить печатное издание - смело скачивайте цифровую версию книги или, быть может, журнала. Не любите читать - можно загрузить бесплатно аудикнигу. Для веб дизайнеров и программистов так же найдется множество специализированного софта, таких как: редакторы с подсветкой, среды программирования, компоненты, системы управления базами данных, разнообразные скрипты и шаблоны. Не так давно у нас появился материал для автолюбителей и владельцев мото - оригинальные и неоригинальные каталоги запчастей, книги и журналы по ремонту и обслуживанию, видеоуроки, статьи по чип тюнингу, прошивкам. Процедура получения контента элементарная, достаточно просто скачать торрент файл и добавить его в загрузку в вашем торрент клиенте. Если у вас нет специального торрент клиента, вы можете его скачать у нас.