(Breakcore, Ambient, Glitch) [CD] Venetian Snares x Daniel Lanois — Venetian Snares x Daniel Lanois (Bonus CD) — 2018, FLAC (tracks+.cue), lossless 

Цитировать
Venetian Snares x Daniel Lanois
"Venetian Snares x Daniel Lanois" — 2018

________________________________________________

СТРАНА: Canada (Winnipeg, MB x Hull, QC)
ЖАНРЫ: Breakcore | Ambient | Glitch
ИЗДАТЕЛЬ АЛЬБОМА: Timesig (Canada)
ФОРМАТ: Collaboration | 2CD, Album
№ ПО КАТАЛОГУ: TIMESIG 008
ИСТОЧНИК: redacted.ch
ТИП РИПА: tracks+.cue
КОДЕК: FLAC (*.flac)
БИТРЕЙТ: Lossless
.
track listing
cd1
01. Mag11 P82 (04:07)
02. HpShk5050 P127 (02:52)
03. United P92 (09:34)
04. Bernard Revisit P81 (02:14)
05. Best P54 (03:39)
06. Mothors Pressroll P131 (03:37)
07. Night MXCMPV1 P74 (05:02)
08. Ophelius 1stP118 (02:12)
cd2 (bonus CD)
01. Night GHP133 (05:29)
02. Scientist E2P49 (03:37)
03. Mag11 P136 (03:23)
04. Mothors GHV4P140 (04:02)
05. Steambird P80 (03:54)
06. Joe P11LC2P146 (02:34)
07. Mag11 P65 (04:33)
08. Cat Song P53 (02:44)
total length (01:03:25)

CD1 | 00:33:13

l o g

Exact Audio Copy V1.3 from 2. September 2016
EAC extraction logfile from 8. May 2018, 16:42
Venetian Snares x Daniel Lanois / Venetian Snares x Daniel Lanois
Used drive : PLEXTOR CD-R PX-230A Adapter: 1 ID: 0
Read mode : SecureUtilize accurate stream : YesDefeat audio cache : YesMake use of C2 pointers : No
Read offset correction : 738Overread into Lead-In and Lead-Out : NoFill up missing offset samples with silence : YesDelete leading and trailing silent blocks : NoNull samples used in CRC calculations : YesUsed interface : Native Win32 interface for Win NT & 2000Gap handling : Appended to previous track
Used output format : User Defined EncoderSelected bitrate : 1024 kBit/sQuality : HighAdd ID3 tag : NoCommand line compressor : C:\Program Files\flac-1.3.2-win\win64\flac.exeAdditional command line options : -8 -e -p -V -T "ARTIST=%artist%" -T "TITLE=%title%" -T "ALBUM=%albumtitle%" -T "DATE=%year%" -T "TRACKNUMBER=%tracknr1%" -T "GENRE=%genre%" -T "PERFORMER=%albuminterpret%" -T "COMPOSER=%composer%" %haslyrics%--tag-from-file=LYRICS="%lyricsfile%"%haslyrics% -T "ALBUMARTIST=%albumartist%" -T "DISCNUMBER=%cdnumber%" -T "TOTALDISCS=%totalcds%" -T "TOTALTRACKS=%numtracks%" -T "COMMENT=%comment%" %source% -o %dest%
TOC of the extracted CD
Track | Start | Length | Start sector | End sector --------------------------------------------------------- 1 | 0:00.00 | 4:06.35 | 0 | 18484 2 | 4:06.35 | 2:51.19 | 18485 | 31328 3 | 6:57.54 | 9:33.62 | 31329 | 74365 4 | 16:31.41 | 2:13.28 | 74366 | 84368 5 | 18:44.69 | 3:38.50 | 84369 | 100768 6 | 22:23.44 | 3:36.51 | 100769 | 117019 7 | 26:00.20 | 5:01.22 | 117020 | 139616 8 | 31:01.42 | 2:11.08 | 139617 | 149449
Track 1
Filename O:\Music\Venetian Snares x Daniel Lanois (2018) {TIMESIG008, CD + Ltd CDr}\Disc 1\01 - Mag11 P82.wav
Pre-gap length 0:00:02.00
Peak level 97.7 % Extraction speed 4.2 X Track quality 100.0 % Test CRC 1002FF07 Copy CRC 1002FF07 Track not present in AccurateRip database Copy OK
Track 2
Filename O:\Music\Venetian Snares x Daniel Lanois (2018) {TIMESIG008, CD + Ltd CDr}\Disc 1\02 - HpShk5050 P127.wav
Peak level 97.7 % Extraction speed 5.3 X Track quality 100.0 % Test CRC 894F502B Copy CRC 894F502B Track not present in AccurateRip database Copy OK
Track 3
Filename O:\Music\Venetian Snares x Daniel Lanois (2018) {TIMESIG008, CD + Ltd CDr}\Disc 1\03 - United P92.wav
Peak level 97.7 % Extraction speed 4.3 X Track quality 100.0 % Test CRC FD5662FD Copy CRC FD5662FD Track not present in AccurateRip database Copy OK
Track 4
Filename O:\Music\Venetian Snares x Daniel Lanois (2018) {TIMESIG008, CD + Ltd CDr}\Disc 1\04 - Bernard Revisit P81.wav
Peak level 97.7 % Extraction speed 5.3 X Track quality 100.0 % Test CRC 33E213CA Copy CRC 33E213CA Track not present in AccurateRip database Copy OK
Track 5
Filename O:\Music\Venetian Snares x Daniel Lanois (2018) {TIMESIG008, CD + Ltd CDr}\Disc 1\05 - Best P54.wav
Peak level 97.7 % Extraction speed 4.2 X Track quality 100.0 % Test CRC 8558F110 Copy CRC 8558F110 Track not present in AccurateRip database Copy OK
Track 6
Filename O:\Music\Venetian Snares x Daniel Lanois (2018) {TIMESIG008, CD + Ltd CDr}\Disc 1\06 - Mothors Pressroll P131.wav
Peak level 97.7 % Extraction speed 3.8 X Track quality 100.0 % Test CRC 6CBB9BB8 Copy CRC 6CBB9BB8 Track not present in AccurateRip database Copy OK
Track 7
Filename O:\Music\Venetian Snares x Daniel Lanois (2018) {TIMESIG008, CD + Ltd CDr}\Disc 1\07 - Night MXCMPV1 P74.wav
Peak level 97.7 % Extraction speed 4.4 X Track quality 100.0 % Test CRC AB27121B Copy CRC AB27121B Track not present in AccurateRip database Copy OK
Track 8
Filename O:\Music\Venetian Snares x Daniel Lanois (2018) {TIMESIG008, CD + Ltd CDr}\Disc 1\08 - Ophelius 1stP118.wav
Peak level 97.7 % Extraction speed 4.6 X Track quality 100.0 % Test CRC AE53257D Copy CRC AE53257D Track not present in AccurateRip database Copy OK
None of the tracks are present in the AccurateRip database
No errors occurred
End of status report
---- CUETools DB Plugin V2.1.6
[CTDB TOCID: pY_o4Abpa1fhsoP2nLuCCEPfBoU-] foundSubmit result: pY_o4Abpa1fhsoP2nLuCCEPfBoU- has been confirmedTrack | CTDB Status 1 | (7/7) Accurately ripped 2 | (7/7) Accurately ripped 3 | (7/7) Accurately ripped 4 | (7/7) Accurately ripped 5 | (7/7) Accurately ripped 6 | (7/7) Accurately ripped 7 | (7/7) Accurately ripped 8 | (7/7) Accurately ripped
==== Log checksum A96CB66F29996AE951880E483511FE7BDA7E563186A125468CF75AE6D300E838 ====

.c u e

REM GENRE BreakcoreREM DATE 2018REM DISCID 6A07C808REM COMMENT "ExactAudioCopy v1.3"PERFORMER "Venetian Snares x Daniel Lanois"TITLE "Venetian Snares x Daniel Lanois"FILE "01. Mag11 P82.wav" WAVE  TRACK 01 AUDIO    TITLE "Mag11 P82"    PERFORMER "Venetian Snares x Daniel Lanois"    INDEX 01 00:00:00FILE "02. HpShk5050 P127.wav" WAVE  TRACK 02 AUDIO    TITLE "HpShk5050 P127"    PERFORMER "Venetian Snares x Daniel Lanois"    INDEX 01 00:00:00FILE "03. United P92.wav" WAVE  TRACK 03 AUDIO    TITLE "United P92"    PERFORMER "Venetian Snares x Daniel Lanois"    INDEX 01 00:00:00FILE "04. Bernard Revisit P81.wav" WAVE  TRACK 04 AUDIO    TITLE "Bernard Revisit P81"    PERFORMER "Venetian Snares x Daniel Lanois"    INDEX 01 00:00:00FILE "05. Best P54.wav" WAVE  TRACK 05 AUDIO    TITLE "Best P54"    PERFORMER "Venetian Snares x Daniel Lanois"    INDEX 01 00:00:00FILE "06. Mothors Pressroll P131.wav" WAVE  TRACK 06 AUDIO    TITLE "Mothors Pressroll P131"    PERFORMER "Venetian Snares x Daniel Lanois"    INDEX 01 00:00:00FILE "07. Night MXCMPV1 P74.wav" WAVE  TRACK 07 AUDIO    TITLE "Night MXCMPV1 P74"    PERFORMER "Venetian Snares x Daniel Lanois"    INDEX 01 00:00:00FILE "08. Ophelius 1stP118.wav" WAVE  TRACK 08 AUDIO    TITLE "Ophelius 1stP118"    PERFORMER "Venetian Snares x Daniel Lanois"    INDEX 01 00:00:00

CD2 | 00:30:12

l o g

Exact Audio Copy V1.3 from 2. September 2016
EAC extraction logfile from 8. May 2018, 17:26
Venetian Snares x Daniel Lanois / Venetian Snares x Daniel Lanois
Used drive : PLEXTOR CD-R PX-230A Adapter: 1 ID: 0
Read mode : SecureUtilize accurate stream : YesDefeat audio cache : YesMake use of C2 pointers : No
Read offset correction : 738Overread into Lead-In and Lead-Out : NoFill up missing offset samples with silence : YesDelete leading and trailing silent blocks : NoNull samples used in CRC calculations : YesUsed interface : Native Win32 interface for Win NT & 2000Gap handling : Appended to previous track
Used output format : User Defined EncoderSelected bitrate : 1024 kBit/sQuality : HighAdd ID3 tag : NoCommand line compressor : C:\Program Files\flac-1.3.2-win\win64\flac.exeAdditional command line options : -8 -e -p -V -T "ARTIST=%artist%" -T "TITLE=%title%" -T "ALBUM=%albumtitle%" -T "DATE=%year%" -T "TRACKNUMBER=%tracknr1%" -T "GENRE=%genre%" -T "PERFORMER=%albuminterpret%" -T "COMPOSER=%composer%" %haslyrics%--tag-from-file=LYRICS="%lyricsfile%"%haslyrics% -T "ALBUMARTIST=%albumartist%" -T "DISCNUMBER=%cdnumber%" -T "TOTALDISCS=%totalcds%" -T "TOTALTRACKS=%numtracks%" -T "COMMENT=%comment%" %source% -o %dest%
TOC of the extracted CD
Track | Start | Length | Start sector | End sector --------------------------------------------------------- 1 | 0:00.00 | 5:29.00 | 0 | 24674 2 | 5:29.00 | 3:36.58 | 24675 | 40932 3 | 9:05.58 | 3:22.22 | 40933 | 56104 4 | 12:28.05 | 4:01.40 | 56105 | 74219 5 | 16:29.45 | 3:53.01 | 74220 | 91695 6 | 20:22.46 | 2:33.02 | 91696 | 103172 7 | 22:55.48 | 4:32.18 | 103173 | 123590 8 | 27:27.66 | 2:43.16 | 123591 | 135831
Track 1
Filename O:\Music\Venetian Snares x Daniel Lanois (2018) {TIMESIG008, CD + Ltd CDr}\Disc 2\01 - Night GHP133.wav
Pre-gap length 0:00:02.00
Peak level 97.7 % Extraction speed 6.4 X Track quality 99.9 % Test CRC 61714322 Copy CRC 61714322 Track not present in AccurateRip database Copy OK
Track 2
Filename O:\Music\Venetian Snares x Daniel Lanois (2018) {TIMESIG008, CD + Ltd CDr}\Disc 2\02 - Scientist E2P49.wav
Pre-gap length 0:00:02.00
Peak level 97.7 % Extraction speed 7.2 X Track quality 99.9 % Test CRC D888D072 Copy CRC D888D072 Track not present in AccurateRip database Copy OK
Track 3
Filename O:\Music\Venetian Snares x Daniel Lanois (2018) {TIMESIG008, CD + Ltd CDr}\Disc 2\03 - Mag11 P136.wav
Pre-gap length 0:00:02.00
Peak level 97.7 % Extraction speed 7.7 X Track quality 100.0 % Test CRC AFB70E48 Copy CRC AFB70E48 Track not present in AccurateRip database Copy OK
Track 4
Filename O:\Music\Venetian Snares x Daniel Lanois (2018) {TIMESIG008, CD + Ltd CDr}\Disc 2\04 - Mothors GHV4P140.wav
Pre-gap length 0:00:02.00
Peak level 97.7 % Extraction speed 9.3 X Track quality 100.0 % Test CRC 8EE16C70 Copy CRC 8EE16C70 Track not present in AccurateRip database Copy OK
Track 5
Filename O:\Music\Venetian Snares x Daniel Lanois (2018) {TIMESIG008, CD + Ltd CDr}\Disc 2\05 - Steambird P80.wav
Pre-gap length 0:00:02.00
Peak level 97.7 % Extraction speed 7.7 X Track quality 99.9 % Test CRC E7DC880C Copy CRC E7DC880C Track not present in AccurateRip database Copy OK
Track 6
Filename O:\Music\Venetian Snares x Daniel Lanois (2018) {TIMESIG008, CD + Ltd CDr}\Disc 2\06 - Joe P11LC2P146.wav
Pre-gap length 0:00:02.00
Peak level 97.7 % Extraction speed 7.7 X Track quality 99.9 % Test CRC 68D158B6 Copy CRC 68D158B6 Track not present in AccurateRip database Copy OK
Track 7
Filename O:\Music\Venetian Snares x Daniel Lanois (2018) {TIMESIG008, CD + Ltd CDr}\Disc 2\07 - Mag11 P65.wav
Pre-gap length 0:00:02.00
Peak level 97.7 % Extraction speed 8.7 X Track quality 99.9 % Test CRC 50B21FA6 Copy CRC 50B21FA6 Track not present in AccurateRip database Copy OK
Track 8
Filename O:\Music\Venetian Snares x Daniel Lanois (2018) {TIMESIG008, CD + Ltd CDr}\Disc 2\08 - Cat Song P53.wav
Pre-gap length 0:00:02.00
Peak level 97.7 % Extraction speed 9.5 X Track quality 100.0 % Test CRC 33D6D399 Copy CRC 33D6D399 Track not present in AccurateRip database Copy OK
None of the tracks are present in the AccurateRip database
No errors occurred
End of status report
---- CUETools DB Plugin V2.1.6
[CTDB TOCID: dNfxH6hasFZAwpgkoGbgyVTQtXo-] foundSubmit result: dNfxH6hasFZAwpgkoGbgyVTQtXo- has been confirmedTrack | CTDB Status 1 | (7/7) Accurately ripped 2 | (7/7) Accurately ripped 3 | (7/7) Accurately ripped 4 | (7/7) Accurately ripped 5 | (7/7) Accurately ripped 6 | (7/7) Accurately ripped 7 | (7/7) Accurately ripped 8 | (7/7) Accurately ripped
==== Log checksum A756AC9F28F074D0DA50C9B262C258DA76262338C312199997A488352C3941D0 ====

.c u e

REM GENRE BreakcoreREM DATE 2018REM DISCID 67071308REM COMMENT "ExactAudioCopy v1.3"PERFORMER "Venetian Snares x Daniel Lanois"TITLE "Venetian Snares x Daniel Lanois"FILE "01. Night GHP133.wav" WAVE  TRACK 01 AUDIO    TITLE "Night GHP133"    PERFORMER "Venetian Snares x Daniel Lanois"    FLAGS DCP    INDEX 01 00:00:00  TRACK 02 AUDIO    TITLE "Scientist E2P49"    PERFORMER "Venetian Snares x Daniel Lanois"    FLAGS DCP    INDEX 00 05:27:00FILE "02. Scientist E2P49.wav" WAVE    INDEX 01 00:00:00  TRACK 03 AUDIO    TITLE "Mag11 P136"    PERFORMER "Venetian Snares x Daniel Lanois"    FLAGS DCP    INDEX 00 03:34:58FILE "03. Mag11 P136.wav" WAVE    INDEX 01 00:00:00  TRACK 04 AUDIO    TITLE "Mothors GHV4P140"    PERFORMER "Venetian Snares x Daniel Lanois"    FLAGS DCP    INDEX 00 03:20:22FILE "04. Mothors GHV4P140.wav" WAVE    INDEX 01 00:00:00  TRACK 05 AUDIO    TITLE "Steambird P80"    PERFORMER "Venetian Snares x Daniel Lanois"    FLAGS DCP    INDEX 00 03:59:40FILE "05. Steambird P80.wav" WAVE    INDEX 01 00:00:00  TRACK 06 AUDIO    TITLE "Joe P11LC2P146"    PERFORMER "Venetian Snares x Daniel Lanois"    FLAGS DCP    INDEX 00 03:51:01FILE "06. Joe P11LC2P146.wav" WAVE    INDEX 01 00:00:00  TRACK 07 AUDIO    TITLE "Mag11 P65"    PERFORMER "Venetian Snares x Daniel Lanois"    FLAGS DCP    INDEX 00 02:31:02FILE "07. Mag11 P65.wav" WAVE    INDEX 01 00:00:00  TRACK 08 AUDIO    TITLE "Cat Song P53"    PERFORMER "Venetian Snares x Daniel Lanois"    FLAGS DCP    INDEX 00 04:30:18FILE "08. Cat Song P53.wav" WAVE    INDEX 01 00:00:00
Вы не можете начинать темы
Вы не можете отвечать на сообщения
Вы не можете редактировать свои сообщения
Вы не можете удалять свои сообщения
Вы не можете голосовать в опросах
Вы не можете прикреплять файлы к сообщениям
Вы можете скачивать файлы
!ВНИМАНИЕ!

Сайт не предоставляет электронные версии произведений, а занимается лишь коллекционированием и каталогизацией ссылок, присылаемых и публикуемых на форуме нашими читателями. Если вы являетесь правообладателем какого-либо представленного материала и не желаете, чтобы ссылка на него находилась в нашем каталоге, свяжитесь с нами, и мы незамедлительно удалим ее. Файлы для обмена на трекере предоставлены пользователями сайта, и администрация не несет ответственности за их содержание. Просьба не заливать файлы, защищенные авторскими правами, а также файлы нелегального содержания!

Искали программы, игры, дополнения, музыка mp3, аниме, аудио книги, журналы? Добро пожаловать на свободный торрент трекер B-Tor.Ru, у нас можно скачать бесплатно, без смс и регистрации и прочих ограничений лучшие, отборные сборки программ, игр. Скачать торрентом не составит труда даже не опытному пользователю. Раздачи ежедневно обновляются, только лучшие и качественные раздачи, подробные описания и скриншоты. Огромная коллекция программ для работы со звуком, графикой, дизайном, а так же множество плагинов и инструментов к ним с подробной инструкцией и рекомендациями. Прошивки для навигаторов, карты. Разнообразные игры, для Windows, Linux. В коллекцие есть и старые игры любых жанров, Rpg, Action, Shooter, strategy Множество дополнений, модификаций, сценариев для популярных игр в жанре экш, рпг, гонки, стратегии, логические игры. Множество аддонов и сценариев для Microsoft Flight Simulator Большая коллекция книг, учебников. Если нет возможности купить печатное издание - смело скачивайте цифровую версию книги или, быть может, журнала. Не любите читать - можно загрузить бесплатно аудикнигу. Для веб дизайнеров и программистов так же найдется множество специализированного софта, таких как: редакторы с подсветкой, среды программирования, компоненты, системы управления базами данных, разнообразные скрипты и шаблоны. Не так давно у нас появился материал для автолюбителей и владельцев мото - оригинальные и неоригинальные каталоги запчастей, книги и журналы по ремонту и обслуживанию, видеоуроки, статьи по чип тюнингу, прошивкам. Процедура получения контента элементарная, достаточно просто скачать торрент файл и добавить его в загрузку в вашем торрент клиенте. Если у вас нет специального торрент клиента, вы можете его скачать у нас.