(IDM, Experimental, Abstract) [CD] VA - Myths & Masks Of Karol Szymanowski Music By Ukrainian Sound Artists - 2011, FLAC (tracks+.cue), lossless 

Цитировать
Myths & Masks Of Karol Szymanowski Music By Ukrainian Sound Artists
Жанр: IDM, Experimental, Abstract
Носитель: CD
Страна-производитель диска (релиза): Украина
Год издания: 2011
Издатель (лейбл): Kvitnu
Номер по каталогу: KVITNU 18
Аудиокодек: FLAC (*.flac)
Тип рипа: tracks+.cue
Битрейт аудио: lossless
Продолжительность: 50:24
Источник (релизер): Свой рип
Наличие сканов в содержимом раздачи: да
Треклист:
01. Dunaewsky69 - Andante - in modo d'una canzona (5:58)
02. Nikolaienko - The Signals of Szymanowski (5:30)
03. Kotra - The Dust Of Nihilism (6:39)
04. Zavoloka - Anxiety (6:10)
05. V4w.enko - Variations Opus 3 - Coda (7:09)
06. Ujif_notfound - Nokturne by Shi_Syn_Fi (7:26)
07. Alla Zageykevych - Mithe IV: K.S. (7:32)
08. Andrey Kititchenko - op.58-9 (4:02)

Лог создания рипа

Exact Audio Copy V1.3 from 2. September 2016
EAC extraction logfile from 5. February 2018, 22:49
Ukrainian Sound Artists / Myths & masks of Karol Szymanowski music
Used drive : TEAC CD-W524E Adapter: 1 ID: 2
Read mode : SecureUtilize accurate stream : YesDefeat audio cache : YesMake use of C2 pointers : No
Read offset correction : 686Overread into Lead-In and Lead-Out : NoFill up missing offset samples with silence : YesDelete leading and trailing silent blocks : NoNull samples used in CRC calculations : YesUsed interface : Native Win32 interface for Win NT & 2000Gap handling : Appended to previous track
Used output format : User Defined EncoderSelected bitrate : 896 kBit/sQuality : HighAdd ID3 tag : NoCommand line compressor : C:\Program Files\Exact Audio Copy\FLAC\FLAC.EXEAdditional command line options : -8 -V -T "ARTIST=%artist%" -T "TITLE=%title%" -T "ALBUM=%albumtitle%" -T "DATE=%year%" -T "TRACKNUMBER=%tracknr%" -T "GENRE=%genre%" -T "COMMENT=%comment%" %hascover%--picture="%coverfile%"%hascover% %source% -o %dest%
TOC of the extracted CD
Track | Start | Length | Start sector | End sector --------------------------------------------------------- 1 | 0:00.00 | 5:57.51 | 0 | 26825 2 | 5:57.51 | 5:29.46 | 26826 | 51546 3 | 11:27.22 | 6:39.01 | 51547 | 81472 4 | 18:06.23 | 6:10.17 | 81473 | 109239 5 | 24:16.40 | 7:08.43 | 109240 | 141382 6 | 31:25.08 | 7:25.49 | 141383 | 174806 7 | 38:50.57 | 7:31.53 | 174807 | 208684 8 | 46:22.35 | 4:01.64 | 208685 | 226823
Track 1
Filename I:\CD_lossless_my\Myths & masks of Karol Szymanowski music (2011)\01. Ukrainian Sound Artists - Dunaewsky69 - Andante - in modo d'una canzona.wav
Pre-gap length 0:00:02.00
Peak level 100.0 % Extraction speed 5.1 X Track quality 100.0 % Test CRC B3999228 Copy CRC B3999228 Track not present in AccurateRip database Copy OK
Track 2
Filename I:\CD_lossless_my\Myths & masks of Karol Szymanowski music (2011)\02. Ukrainian Sound Artists - Nikolaienko - The Signals of Szymanowski.wav
Peak level 98.0 % Extraction speed 5.7 X Track quality 100.0 % Test CRC D2DF2947 Copy CRC D2DF2947 Track not present in AccurateRip database Copy OK
Track 3
Filename I:\CD_lossless_my\Myths & masks of Karol Szymanowski music (2011)\03. Ukrainian Sound Artists - Kotra - The Dust Of Nihilism.wav
Peak level 96.9 % Extraction speed 4.2 X Track quality 99.9 % Test CRC 7F012A2E Copy CRC 7F012A2E Track not present in AccurateRip database Copy OK
Track 4
Filename I:\CD_lossless_my\Myths & masks of Karol Szymanowski music (2011)\04. Ukrainian Sound Artists - Zavoloka - Anxiety.wav
Peak level 100.0 % Extraction speed 6.9 X Track quality 100.0 % Test CRC 06D74964 Copy CRC 06D74964 Track not present in AccurateRip database Copy OK
Track 5
Filename I:\CD_lossless_my\Myths & masks of Karol Szymanowski music (2011)\05. Ukrainian Sound Artists - V4w.enko - Variations Opus 3 - Coda.wav
Peak level 100.0 % Extraction speed 3.4 X Track quality 99.9 % Test CRC D2669459 Copy CRC D2669459 Track not present in AccurateRip database Copy OK
Track 6
Filename I:\CD_lossless_my\Myths & masks of Karol Szymanowski music (2011)\06. Ukrainian Sound Artists - Ujif_notfound - Nokturne by Shi_Syn_Fi.wav
Peak level 100.0 % Extraction speed 4.4 X Track quality 100.0 % Test CRC 15F71887 Copy CRC 15F71887 Track not present in AccurateRip database Copy OK
Track 7
Filename I:\CD_lossless_my\Myths & masks of Karol Szymanowski music (2011)\07. Ukrainian Sound Artists - Alla Zageykevych - Mithe IV- K.S..wav
Peak level 100.0 % Extraction speed 8.1 X Track quality 100.0 % Test CRC 6A8F957F Copy CRC 6A8F957F Track not present in AccurateRip database Copy OK
Track 8
Filename I:\CD_lossless_my\Myths & masks of Karol Szymanowski music (2011)\08. Ukrainian Sound Artists - Andrey Kititchenko - op.58-9.wav
Peak level 97.2 % Extraction speed 2.8 X Track quality 99.9 % Test CRC 4412E5C5 Copy CRC 4412E5C5 Track not present in AccurateRip database Copy OK
None of the tracks are present in the AccurateRip database
No errors occurred
End of status report
---- CUETools DB Plugin V2.1.6
[CTDB TOCID: DWGT8vEed9XwSNbz_9XnkingoMA-] foundSubmit result: DWGT8vEed9XwSNbz_9XnkingoMA- has been confirmedTrack | CTDB Status 1 | (1/1) Accurately ripped 2 | (1/1) Accurately ripped 3 | (1/1) Accurately ripped 4 | (1/1) Accurately ripped 5 | (1/1) Accurately ripped 6 | (1/1) Accurately ripped 7 | (1/1) Accurately ripped 8 | (1/1) Accurately ripped
==== Log checksum FE029461A31DE1EFC4583B7FC090A8DBE3C96363EB1CA949EDE6A202F09EE6A5 ====

Содержание индексной карты (.CUE)

REM GENRE ElectronicREM DATE 2011REM DISCID 840BD008REM COMMENT "ExactAudioCopy v1.3"PERFORMER "Ukrainian Sound Artists"TITLE "Myths & masks of Karol Szymanowski music"REM COMPOSER ""FILE "01. Ukrainian Sound Artists - Dunaewsky69 - Andante - in modo d'una canzona.flac" WAVE  TRACK 01 AUDIO    TITLE "Dunaewsky69 - Andante - in modo d'una canzona"    PERFORMER "Ukrainian Sound Artists"    REM COMPOSER ""    INDEX 01 00:00:00FILE "02. Ukrainian Sound Artists - Nikolaienko - The Signals of Szymanowski.flac" WAVE  TRACK 02 AUDIO    TITLE "Nikolaienko - The Signals of Szymanowski"    PERFORMER "Ukrainian Sound Artists"    REM COMPOSER ""    INDEX 01 00:00:00FILE "03. Ukrainian Sound Artists - Kotra - The Dust Of Nihilism.flac" WAVE  TRACK 03 AUDIO    TITLE "Kotra - The Dust Of Nihilism"    PERFORMER "Ukrainian Sound Artists"    REM COMPOSER ""    INDEX 01 00:00:00FILE "04. Ukrainian Sound Artists - Zavoloka - Anxiety.flac" WAVE  TRACK 04 AUDIO    TITLE "Zavoloka - Anxiety"    PERFORMER "Ukrainian Sound Artists"    REM COMPOSER ""    INDEX 01 00:00:00FILE "05. Ukrainian Sound Artists - V4w.enko - Variations Opus 3 - Coda.flac" WAVE  TRACK 05 AUDIO    TITLE "V4w.enko - Variations Opus 3 - Coda"    PERFORMER "Ukrainian Sound Artists"    REM COMPOSER ""    INDEX 01 00:00:00FILE "06. Ukrainian Sound Artists - Ujif_notfound - Nokturne by Shi_Syn_Fi.flac" WAVE  TRACK 06 AUDIO    TITLE "Ujif_notfound - Nokturne by Shi_Syn_Fi"    PERFORMER "Ukrainian Sound Artists"    REM COMPOSER ""    INDEX 01 00:00:00FILE "07. Ukrainian Sound Artists - Alla Zageykevych - Mithe IV- K.S..flac" WAVE  TRACK 07 AUDIO    TITLE "Alla Zageykevych - Mithe IV: K.S."    PERFORMER "Ukrainian Sound Artists"    REM COMPOSER ""    INDEX 01 00:00:00FILE "08. Ukrainian Sound Artists - Andrey Kititchenko - op.58-9.flac" WAVE  TRACK 08 AUDIO    TITLE "Andrey Kititchenko - op.58-9"    PERFORMER "Ukrainian Sound Artists"    REM COMPOSER ""    INDEX 01 00:00:00
Доп. информация: https://www.discogs.com/Various-Myths-Masks-Of-Karol-Szymanowski-Music-By-Ukraini.../release/2957645
Вы не можете начинать темы
Вы не можете отвечать на сообщения
Вы не можете редактировать свои сообщения
Вы не можете удалять свои сообщения
Вы не можете голосовать в опросах
Вы не можете прикреплять файлы к сообщениям
Вы можете скачивать файлы
!ВНИМАНИЕ!

Сайт не предоставляет электронные версии произведений, а занимается лишь коллекционированием и каталогизацией ссылок, присылаемых и публикуемых на форуме нашими читателями. Если вы являетесь правообладателем какого-либо представленного материала и не желаете, чтобы ссылка на него находилась в нашем каталоге, свяжитесь с нами, и мы незамедлительно удалим ее. Файлы для обмена на трекере предоставлены пользователями сайта, и администрация не несет ответственности за их содержание. Просьба не заливать файлы, защищенные авторскими правами, а также файлы нелегального содержания!

Искали программы, игры, дополнения, музыка mp3, аниме, аудио книги, журналы? Добро пожаловать на свободный торрент трекер B-Tor.Ru, у нас можно скачать бесплатно, без смс и регистрации и прочих ограничений лучшие, отборные сборки программ, игр. Скачать торрентом не составит труда даже не опытному пользователю. Раздачи ежедневно обновляются, только лучшие и качественные раздачи, подробные описания и скриншоты. Огромная коллекция программ для работы со звуком, графикой, дизайном, а так же множество плагинов и инструментов к ним с подробной инструкцией и рекомендациями. Прошивки для навигаторов, карты. Разнообразные игры, для Windows, Linux. В коллекцие есть и старые игры любых жанров, Rpg, Action, Shooter, strategy Множество дополнений, модификаций, сценариев для популярных игр в жанре экш, рпг, гонки, стратегии, логические игры. Множество аддонов и сценариев для Microsoft Flight Simulator Большая коллекция книг, учебников. Если нет возможности купить печатное издание - смело скачивайте цифровую версию книги или, быть может, журнала. Не любите читать - можно загрузить бесплатно аудикнигу. Для веб дизайнеров и программистов так же найдется множество специализированного софта, таких как: редакторы с подсветкой, среды программирования, компоненты, системы управления базами данных, разнообразные скрипты и шаблоны. Не так давно у нас появился материал для автолюбителей и владельцев мото - оригинальные и неоригинальные каталоги запчастей, книги и журналы по ремонту и обслуживанию, видеоуроки, статьи по чип тюнингу, прошивкам. Процедура получения контента элементарная, достаточно просто скачать торрент файл и добавить его в загрузку в вашем торрент клиенте. Если у вас нет специального торрент клиента, вы можете его скачать у нас.