Теория Большого Взрыва / The Big Bang Theory / Сезон: 1 / Серии: 00 из 1 (Марк Сендроуски, Питер Чакос, Энтони Джозеф Рич) [2006, США, Комедия, ситком, DVDScreener] VO 

Цитировать
Теория Большого Взрыва / The Big Bang Theory. Непоказанный пилот.
Год выпуска: 2006
Страна: США
Жанр: Комедия, ситком
Продолжительность: 00:23:09
Перевод: Профессиональный (одноголосый закадровый). Кураж-Бамбей
Режиссёр: Марк Сендроуски, Питер Чакос, Энтони Джозеф Рич
В ролях:
  • Джонни Галэки (Леонард Хоффстедер)
  • Джим Парсонс (Шелдон Купер)
  • Аманда Уолш (Кэти)
  • Ирис Бар (Джильда)
Описание: Пилотный выпуск, разработанный для сериала, существенно отличался от нынешней формы. Единственные персонажи, оставшиеся в дальнейшей версии ситкома, — Леонард и Шелдон (Джон Гэлеки и Джим Парсонс соответственно). Помимо этих персонажей, в пилоте присутствовали Кэти (Аманда Уолш), «девушка уличной закалки, жесткая, но ранимая внутри», и Джильда (Ирис Бар) — коллега и друг Шелдона и Леонарда. Кэти расстается со своим бойфрендом и становится новым соседом парней. Джильда, в свою очередь, чувствует угрозу собственным отношениям с друзьями из-за Кэти.
Серия не прошла в эфир, однако создатели получили разрешение на съемку второго пилота, который превратился в хорошо знакомый нам сериал.
Ссылка на предыдущие и альтернативные раздачи (версия с оригинальной озвучкой и субтитрами).
Качество: DVDScreener
Формат: AVI
Видео: MPEG-4; 640x480; 4:3; 29,99 fps; 905 kbps
Аудио: MP3; 48,0 kHz; 2 ch; 160 kbps
Субтитры: Отсутствуют

MediaInfo

Формат : AVI
Формат/Информация : Audio Video Interleave
Размер файла : 178 Мбайт
Продолжительность : 23 м.
Общий поток : 1076 Кбит/сек
Библиотека кодирования : VirtualDub-MPEG2 build 24586/release
Видео
Идентификатор : 0
Формат : MPEG-4 Visual
Профиль формата : Advanced Simple@L5
Параметр BVOP формата : 2
Параметр QPel формата : Нет
Параметр GMC формата : Без точки перехода
Параметр матрицы формата : Default (H.263)
Идентификатор кодека : XVID
Идентификатор кодека/Подсказка : XviD
Продолжительность : 23 м.
Битрейт : 905 Кбит/сек
Ширина : 640 пикселей
Высота : 480 пикселей
Соотношение сторон : 4:3
Частота кадров : 29,970 (29970/1000) кадров/сек
Цветовое пространство : YUV
Субдискретизация насыщенности : 4:2:0
Битовая глубина : 8 бит
Тип развёртки : Прогрессивная
Метод сжатия : С потерями
Бит/(Пиксели*Кадры) : 0.098
Размер потока : 150 Мбайт (84%)
Библиотека кодирования : XviD 1.1.2 (UTC 2006-11-01)
Аудио
Идентификатор : 1
Формат : MPEG Audio
Версия формата : Version 1
Профиль формата : Layer 3
Идентификатор кодека : 55
Идентификатор кодека/Подсказка : MP3
Продолжительность : 23 м.
Вид битрейта : Постоянный
Битрейт : 160 Кбит/сек
Каналы : 2 канала
Частота : 48,0 КГц
Метод сжатия : С потерями
Размер потока : 26,5 Мбайт (15%)
Выравнивание : Соединение по промежуткам
Продолжительность промежутка : 33 мс. (1,00 видеокадр)
Время предзагрузки промежутка : 504 мс.

Скриншоты

Вы не можете начинать темы
Вы не можете отвечать на сообщения
Вы не можете редактировать свои сообщения
Вы не можете удалять свои сообщения
Вы не можете голосовать в опросах
Вы не можете прикреплять файлы к сообщениям
Вы можете скачивать файлы
!ВНИМАНИЕ!

Сайт не предоставляет электронные версии произведений, а занимается лишь коллекционированием и каталогизацией ссылок, присылаемых и публикуемых на форуме нашими читателями. Если вы являетесь правообладателем какого-либо представленного материала и не желаете, чтобы ссылка на него находилась в нашем каталоге, свяжитесь с нами, и мы незамедлительно удалим ее. Файлы для обмена на трекере предоставлены пользователями сайта, и администрация не несет ответственности за их содержание. Просьба не заливать файлы, защищенные авторскими правами, а также файлы нелегального содержания!

Искали программы, игры, дополнения, музыка mp3, аниме, аудио книги, журналы? Добро пожаловать на свободный торрент трекер B-Tor.Ru, у нас можно скачать бесплатно, без смс и регистрации и прочих ограничений лучшие, отборные сборки программ, игр. Скачать торрентом не составит труда даже не опытному пользователю. Раздачи ежедневно обновляются, только лучшие и качественные раздачи, подробные описания и скриншоты. Огромная коллекция программ для работы со звуком, графикой, дизайном, а так же множество плагинов и инструментов к ним с подробной инструкцией и рекомендациями. Прошивки для навигаторов, карты. Разнообразные игры, для Windows, Linux. В коллекцие есть и старые игры любых жанров, Rpg, Action, Shooter, strategy Множество дополнений, модификаций, сценариев для популярных игр в жанре экш, рпг, гонки, стратегии, логические игры. Множество аддонов и сценариев для Microsoft Flight Simulator Большая коллекция книг, учебников. Если нет возможности купить печатное издание - смело скачивайте цифровую версию книги или, быть может, журнала. Не любите читать - можно загрузить бесплатно аудикнигу. Для веб дизайнеров и программистов так же найдется множество специализированного софта, таких как: редакторы с подсветкой, среды программирования, компоненты, системы управления базами данных, разнообразные скрипты и шаблоны. Не так давно у нас появился материал для автолюбителей и владельцев мото - оригинальные и неоригинальные каталоги запчастей, книги и журналы по ремонту и обслуживанию, видеоуроки, статьи по чип тюнингу, прошивкам. Процедура получения контента элементарная, достаточно просто скачать торрент файл и добавить его в загрузку в вашем торрент клиенте. Если у вас нет специального торрент клиента, вы можете его скачать у нас.