Теория большого взрыва / The Big Bang Theory / Сезон: 1 / Серии: 1-17 из 17 (Чак Лорри / Chuck Lorre) [2007-2008, США, комедия, BDRip-AVC] VO (Кураж-Бамбей) + Original + Subs (Rus, Eng) 

Цитировать
--Теория большого взрыва / The Big Bang Theory«Smart Is The New Sexy»-- -- Страна: США
Жанр: комедия
Год выхода: 2007-2008
Продолжительность: 17 x 24 мин.
Перевод: профессиональный (одноголосый, закадровый) (Кураж-Бамбей) (новый, по заказу Paramount Comedy в 2012 г.)
Режиссер: Чак Лорри / Chuck Lorre
В ролях: Джонни Галэки, Джим Парсонс, Кейли Куоко-Суитинг, Саймон Хелберг, Кунал Нэйэр, Мелисса Рауш, Майем Биалик
Описание: Два блестящих физика, Леонард и Шелдон, «великие умы», которые понимают, как «работает Вселенная». Но их гениальность ничуть не помогает им общаться с людьми, особенно с женщинами. Всё начинает меняться, когда напротив них поселяется красавица Пенни.
Когда Леонард и Шелдон встречают Пенни, Леонард сразу же начинает интересоваться ею. Он видит в общении с Пенни огромную перспективу, вплоть до любви, однако Шелдон понимает, что мечтам его друга не суждено сбыться.
Стоит также отметить пару странных друзей этих физиков: Воловиц, который любит употреблять фразы на разных языках, включая русский, и Раджеш Кутрапали, теряющий дар речи при виде женщин.
Дополнительно:
1. За предоставление перевода спасибо CasStudio.
2. Первая серия, в отличие от всех предыдущих, имеет абсолютно другое качество, поэтому у нее дополнительный битрейт.

Релиз от -
Автор: Gellard
Сэмпл: скачать
Качество: BDRip-AVC (источник: HDWinG / Blu-Ray Disc / 1080p)
Формат: MKV
Видео: 1024x578 (16:9), 23.976 fps, x264, ~2300 kbps avg, 0.162 bit/pixel
Аудио #1: (VO) 48 kHz, AC3 Dolby Digital, 2/0 (L,R) ch, 192.00 kbps avg
Аудио #2: (ENG) 48 kHz, AC3 Dolby Digital, 3/2 (L,C,R,l,r) + LFE ch, 384.00 kbps avg
Субтитры: русские, английские (SDH)--

Скриншоты

Список серий

  • The Big Bang Theory S01E01: Пилот / Pilot (2007)
  • The Big Bang Theory S01E02: Гипотеза больших отрубей / The Big Bran Hypothesis (2007)
  • The Big Bang Theory S01E03: Следствие пушистых сапожков / The Fuzzy Boots Corollary (2007)
  • The Big Bang Theory S01E04: Эффект светящейся рыбки / The Luminous Fish Effect (2007)
  • The Big Bang Theory S01E05: Постулат гамбургера / The Hamburger Postulate (2007)
  • The Big Bang Theory S01E06: Парадигма Средиземья / The Middle Earth Paradigm (2007)
  • The Big Bang Theory S01E07: Пельменный парадокс / The Dumpling Paradox (2007)
  • The Big Bang Theory S01E08: Эксперимент над кузнечиком / The Grasshopper Experiment (2007)
  • The Big Bang Theory S01E09: Поляризация Купер-Хофстедтер / The Cooper-Hofstadter Polarization (2008)
  • The Big Bang Theory S01E10: Разложение Лубенфельда / The Loobenfeld Decay (2008)
  • The Big Bang Theory S01E11: Аномалия теста для блинчиков / The Pancake Batter Anomaly (2008)
  • The Big Bang Theory S01E12: Двойственность Иерусалима / The Jerusalem Duality (2008)
  • The Big Bang Theory S01E13: Гипотеза банки в виде Бэтмена / The Bat Jar Conjecture (2008)
  • The Big Bang Theory S01E14: Аннигиляция ботано-рая / The Nerdvana Annihilation (2008)
  • The Big Bang Theory S01E15: Неопределенность свиной отбивной / The Pork Chop Indeterminacy (2008)
  • The Big Bang Theory S01E16: Реакция на арахис / The Peanut Reaction (2008)
  • The Big Bang Theory S01E17: Мандариновый фактор / The Tangerine Factor (2008)
Перевод названий собственный.

MediaInfo

General
Unique ID                                : 236428873951060949658576818761008420613 (0xB1DE8B78681D2A31BDF6A321BFD81705)
Complete name                            : The.Big.Bang.Theory.S01E02.The.Big.Bran.Hypothesis.mkv
Format                                   : Matroska
Format version                           : Version 4 / Version 2
File size                                : 435 MiB
Duration                                 : 21mn 9s
Overall bit rate                         : 2 876 Kbps
Encoded date                             : UTC 2014-06-10 06:27:54
Writing application                      : mkvmerge v6.5.0 ('Isn't she lovely') built on Oct 20 2013 12:50:05
Writing library                          : libebml v1.3.0 + libmatroska v1.4.1
Video
ID                                       : 1
Format                                   : AVC
Format/Info                              : Advanced Video Codec
Format profile                           : High@L4.1
Format settings, CABAC                   : Yes
Format settings, ReFrames                : 12 frames
Codec ID                                 : V_MPEG4/ISO/AVC
Duration                                 : 21mn 9s
Bit rate                                 : 2 300 Kbps
Width                                    : 1 024 pixels
Height                                   : 578 pixels
Display aspect ratio                     : 16:9
Frame rate mode                          : Constant
Frame rate                               : 23.976 fps
Color space                              : YUV
Chroma subsampling                       : 4:2:0
Bit depth                                : 8 bits
Scan type                                : Progressive
Bits/(Pixel*Frame)                       : 0.162
Stream size                              : 339 MiB (78%)
Title                                    : The Big Bang Theory S01E02: Гипотеза больших отрубей / The Big Bran Hypothesis (2007) BDRip-AVC by Gellard
Writing library                          : x264 core 138 r2358 9e941d1
Encoding settings                        : cabac=1 / ref=12 / deblock=1:-2:-1 / analyse=0x3:0x113 / me=umh / subme=11 / psy=1 / psy_rd=1.10:0.10 / mixed_ref=1 / me_range=48 / chroma_me=1 / trellis=2 / 8x8dct=1 / cqm=0 / deadzone=21,11 / fast_pskip=1 / chroma_qp_offset=-5 / threads=9 / lookahead_threads=2 / sliced_threads=0 / nr=0 / decimate=1 / interlaced=0 / bluray_compat=0 / constrained_intra=0 / bframes=12 / b_pyramid=2 / b_adapt=2 / b_bias=0 / direct=1 / weightb=1 / open_gop=0 / weightp=2 / keyint=240 / keyint_min=23 / scenecut=40 / intra_refresh=0 / rc_lookahead=40 / rc=2pass / mbtree=1 / bitrate=2300 / ratetol=1.0 / qcomp=0.60 / qpmin=10 / qpmax=69 / qpstep=4 / cplxblur=20.0 / qblur=0.5 / vbv_maxrate=62500 / vbv_bufsize=50000 / nal_hrd=none / ip_ratio=1.40 / aq=1:0.90
Language                                 : English
Default                                  : Yes
Forced                                   : No
Audio #1
ID                                       : 2
Format                                   : AC-3
Format/Info                              : Audio Coding 3
Mode extension                           : CM (complete main)
Format settings, Endianness              : Big
Codec ID                                 : A_AC3
Duration                                 : 21mn 9s
Bit rate mode                            : Constant
Bit rate                                 : 192 Kbps
Channel count                            : 2 channels
Channel positions                        : Front: L R
Sampling rate                            : 48.0 KHz
Bit depth                                : 16 bits
Compression mode                         : Lossy
Stream size                              : 29.1 MiB (7%)
Title                                    : Одноголосый (Кураж-Бамбей) AC3 2.0 @ 192 kbps
Language                                 : Russian
Default                                  : Yes
Forced                                   : No
Audio #2
ID                                       : 3
Format                                   : AC-3
Format/Info                              : Audio Coding 3
Mode extension                           : CM (complete main)
Format settings, Endianness              : Big
Codec ID                                 : A_AC3
Duration                                 : 21mn 9s
Bit rate mode                            : Constant
Bit rate                                 : 384 Kbps
Channel count                            : 6 channels
Channel positions                        : Front: L C R, Side: L R, LFE
Sampling rate                            : 48.0 KHz
Bit depth                                : 16 bits
Compression mode                         : Lossy
Stream size                              : 58.1 MiB (13%)
Title                                    : Оригинал AC3 5.1 @ 384 kbps
Language                                 : English
Default                                  : No
Forced                                   : No
Text #1
ID                                       : 4
Format                                   : UTF-8
Codec ID                                 : S_TEXT/UTF8
Codec ID/Info                            : UTF-8 Plain Text
Title                                    : Русские
Language                                 : Russian
Default                                  : No
Forced                                   : No
Text #2
ID                                       : 5
Format                                   : UTF-8
Codec ID                                 : S_TEXT/UTF8
Codec ID/Info                            : UTF-8 Plain Text
Title                                    : Английские (SDH)
Language                                 : English
Default                                  : No
Forced                                   : No
Menu
00:00:00.000                             : en:00:00:00.000
00:04:06.621                             : en:00:04:06.621
00:10:53.361                             : en:00:10:53.361
00:18:47.335                             : en:00:18:47.335
00:20:40.739                             : en:00:20:40.739
Вы не можете начинать темы
Вы не можете отвечать на сообщения
Вы не можете редактировать свои сообщения
Вы не можете удалять свои сообщения
Вы не можете голосовать в опросах
Вы не можете прикреплять файлы к сообщениям
Вы можете скачивать файлы
!ВНИМАНИЕ!

Сайт не предоставляет электронные версии произведений, а занимается лишь коллекционированием и каталогизацией ссылок, присылаемых и публикуемых на форуме нашими читателями. Если вы являетесь правообладателем какого-либо представленного материала и не желаете, чтобы ссылка на него находилась в нашем каталоге, свяжитесь с нами, и мы незамедлительно удалим ее. Файлы для обмена на трекере предоставлены пользователями сайта, и администрация не несет ответственности за их содержание. Просьба не заливать файлы, защищенные авторскими правами, а также файлы нелегального содержания!

Искали программы, игры, дополнения, музыка mp3, аниме, аудио книги, журналы? Добро пожаловать на свободный торрент трекер B-Tor.Ru, у нас можно скачать бесплатно, без смс и регистрации и прочих ограничений лучшие, отборные сборки программ, игр. Скачать торрентом не составит труда даже не опытному пользователю. Раздачи ежедневно обновляются, только лучшие и качественные раздачи, подробные описания и скриншоты. Огромная коллекция программ для работы со звуком, графикой, дизайном, а так же множество плагинов и инструментов к ним с подробной инструкцией и рекомендациями. Прошивки для навигаторов, карты. Разнообразные игры, для Windows, Linux. В коллекцие есть и старые игры любых жанров, Rpg, Action, Shooter, strategy Множество дополнений, модификаций, сценариев для популярных игр в жанре экш, рпг, гонки, стратегии, логические игры. Множество аддонов и сценариев для Microsoft Flight Simulator Большая коллекция книг, учебников. Если нет возможности купить печатное издание - смело скачивайте цифровую версию книги или, быть может, журнала. Не любите читать - можно загрузить бесплатно аудикнигу. Для веб дизайнеров и программистов так же найдется множество специализированного софта, таких как: редакторы с подсветкой, среды программирования, компоненты, системы управления базами данных, разнообразные скрипты и шаблоны. Не так давно у нас появился материал для автолюбителей и владельцев мото - оригинальные и неоригинальные каталоги запчастей, книги и журналы по ремонту и обслуживанию, видеоуроки, статьи по чип тюнингу, прошивкам. Процедура получения контента элементарная, достаточно просто скачать торрент файл и добавить его в загрузку в вашем торрент клиенте. Если у вас нет специального торрент клиента, вы можете его скачать у нас.