Теория Большого Взрыва / The Big Bang Theory / Сезон: 3 / Серии: 1-9, 11 (23) (Джеймс Барроус) [2009, США, Ситком, HDRip] (Novamedia по заказу СТС) 

Цитировать
Теория Большого Взрыва / The Big Bang Theory- Год выпуска: 2009
Страна: США
Жанр: Ситком
Продолжительность: ~00:22:00 (одна серия)
Перевод: Профессиональный (многоголосый, закадровый)
Русские субтитры: есть
Субтитры: русские, английские
Режиссёр: Джеймс Барроус
В ролях: Джонни Галэки (Леонард), Джим Парсонс (Шелдон), Кейли Куоко (Пэнни), Саймон Хелберг (Говард), Кунал Нэйэр (Радж)
Описание: Два блестящих физика, Леонард и Шелдон, «великие умы», которые понимают как «работает вселенная». Но их гениальность ничуть не помогает им общаться с людьми, особенно с женщинами. Всё начинает меняться, когда напротив них поселяется красавица Пенни. Когда Леонард и Шелдон встречают Пенни, Леонард сразу же начинает интересоваться ею. Он видит в общении с Пенни огромную перспективу, вплоть до любви, однако Шелдон понимает, что мечтам его друга не суждено сбыться. Стоит также отметить пару странных друзей этих физиков: Воловец, который любит употреблять фразы на разных языках, включая русский, и Раджеш Кутрапали, теряющий дар речи при виде женщин.-Доп. информация: Я очень недоволен тем, что на 0day не могли сделать нормальный релиз ТБВ с прекрасной озвучкой Novamedia - я решил сделать свой релиз ̶с̶ ̶б̶л̶е̶к̶д̶ж̶е̶к̶о̶м̶ ̶̶и̶ ̶ш̶л̶ю̶х̶а̶м̶и с качественной стерео-дорожкой и с нормальным пережатием! Аудио-ассы могут сами послушать и сравнить звук: раздача QueZen и звук моей раздачи. Если будет много желающих - обновить сериал с нормальным звуком, по-тихоньку начну делать остальные серии. К сожалению мой дорогой товарисч UTAS сумел записать не все серии, но при повторе - обязательно запишем недостающие.
Спасибы уходят UTAS'у за то, что записывал звук и SerGoLeOne (т.е мне) за то, что свёл звук.- -Сэмпл: нажми сюда
Качество: HDRip
Формат: AVI
Видео кодек: XviD
Аудио кодек: AC3
Видео: XviD 720x400 23.98fps ~1700Kbps
Аудио:
  • русская (Novamedia по заказу СТС): Dolby AC3 48000Hz stereo 192kbps,
  • оригинал: Dolby AC3 48000Hz stereo 192kbps
Скриншоты:
-

Список серий:

3 сезон:
01. The Electric Can Opener Fluctuation
02. The Jiminy Conjecture
03. The Gothowitz Deviation
04. The Pirate Solution
05. The Creepy Candy Coating Corollary
06. The Cornhusker Vortex
07. The Guitarist Amplification
08. The Adhesive Duck Deficiency
09. The Vengeance Formulation
11. The Maternal Congruence

MI

General
Complete name                  : L:\The Big Bang Theory (NovaMedia)\3 season\01. The Electric Can Opener Fluctuation.avi
Format                         : AVI
Format/Info                    : Audio Video Interleave
File size                      : 319 MiB
Duration                       : 21mn 35s
Overall bit rate               : 2 068 Kbps
Writing application            : VirtualDubModRus 1.5.10.2 (build 2542/release)
Writing library                : VirtualDubMod build 2542/release
Video
ID                             : 0
Format                         : MPEG-4 Visual
Format profile                 : Advanced Simple@L5
Format settings, BVOP          : 2
Format settings, QPel          : No
Format settings, GMC           : No warppoints
Format settings, Matrix        : Default (MPEG)
Codec ID                       : XVID
Codec ID/Hint                  : XviD
Duration                       : 21mn 35s
Bit rate                       : 1 669 Kbps
Width                          : 720 pixels
Height                         : 400 pixels
Display aspect ratio           : 16:9
Frame rate                     : 23.976 fps
Color space                    : YUV
Chroma subsampling             : 4:2:0
Bit depth                      : 8 bits
Scan type                      : Progressive
Compression mode               : Lossy
Bits/(Pixel*Frame)             : 0.242
Stream size                    : 258 MiB (81%)
Writing library                : XviD 63
Audio #1
ID                             : 1
Format                         : AC-3
Format/Info                    : Audio Coding 3
Mode extension                 : CM (complete main)
Codec ID                       : 2000
Duration                       : 21mn 35s
Bit rate mode                  : Constant
Bit rate                       : 192 Kbps
Channel(s)                     : 2 channels
Channel positions              : Front: L R
Sampling rate                  : 48.0 KHz
Bit depth                      : 16 bits
Compression mode               : Lossy
Stream size                    : 29.6 MiB (9%)
Alignment                      : Split accross interleaves
Interleave, duration           : 42 ms (1.00 video frame)
Interleave, preload duration   : 500 ms
Audio #2
ID                             : 2
Format                         : AC-3
Format/Info                    : Audio Coding 3
Mode extension                 : CM (complete main)
Codec ID                       : 2000
Duration                       : 21mn 35s
Bit rate mode                  : Constant
Bit rate                       : 192 Kbps
Channel(s)                     : 2 channels
Channel positions              : Front: L R
Sampling rate                  : 48.0 KHz
Bit depth                      : 16 bits
Compression mode               : Lossy
Stream size                    : 29.6 MiB (9%)
Alignment                      : Split accross interleaves
Interleave, duration           : 42 ms (1.00 video frame)
Interleave, preload duration   : 500 ms
Вы не можете начинать темы
Вы не можете отвечать на сообщения
Вы не можете редактировать свои сообщения
Вы не можете удалять свои сообщения
Вы не можете голосовать в опросах
Вы не можете прикреплять файлы к сообщениям
Вы можете скачивать файлы
!ВНИМАНИЕ!

Сайт не предоставляет электронные версии произведений, а занимается лишь коллекционированием и каталогизацией ссылок, присылаемых и публикуемых на форуме нашими читателями. Если вы являетесь правообладателем какого-либо представленного материала и не желаете, чтобы ссылка на него находилась в нашем каталоге, свяжитесь с нами, и мы незамедлительно удалим ее. Файлы для обмена на трекере предоставлены пользователями сайта, и администрация не несет ответственности за их содержание. Просьба не заливать файлы, защищенные авторскими правами, а также файлы нелегального содержания!

Искали программы, игры, дополнения, музыка mp3, аниме, аудио книги, журналы? Добро пожаловать на свободный торрент трекер B-Tor.Ru, у нас можно скачать бесплатно, без смс и регистрации и прочих ограничений лучшие, отборные сборки программ, игр. Скачать торрентом не составит труда даже не опытному пользователю. Раздачи ежедневно обновляются, только лучшие и качественные раздачи, подробные описания и скриншоты. Огромная коллекция программ для работы со звуком, графикой, дизайном, а так же множество плагинов и инструментов к ним с подробной инструкцией и рекомендациями. Прошивки для навигаторов, карты. Разнообразные игры, для Windows, Linux. В коллекцие есть и старые игры любых жанров, Rpg, Action, Shooter, strategy Множество дополнений, модификаций, сценариев для популярных игр в жанре экш, рпг, гонки, стратегии, логические игры. Множество аддонов и сценариев для Microsoft Flight Simulator Большая коллекция книг, учебников. Если нет возможности купить печатное издание - смело скачивайте цифровую версию книги или, быть может, журнала. Не любите читать - можно загрузить бесплатно аудикнигу. Для веб дизайнеров и программистов так же найдется множество специализированного софта, таких как: редакторы с подсветкой, среды программирования, компоненты, системы управления базами данных, разнообразные скрипты и шаблоны. Не так давно у нас появился материал для автолюбителей и владельцев мото - оригинальные и неоригинальные каталоги запчастей, книги и журналы по ремонту и обслуживанию, видеоуроки, статьи по чип тюнингу, прошивкам. Процедура получения контента элементарная, достаточно просто скачать торрент файл и добавить его в загрузку в вашем торрент клиенте. Если у вас нет специального торрент клиента, вы можете его скачать у нас.