Мент в законе -3 / Серии: 1 - 16 из 16 (Сергей Щугарев, Эдуард Реджепов) [2011, Детектив, DVB] 

Цитировать
Мент в законе -3
Год выпуска: 2011
Производство: Студия "Центр кинопроизводства, "Форвард-Фильм"
Жанр: Детектив
Продолжительность: ~ 00:45:00 серия
Субтитры: Отсутствуют
Режиссёр: Сергей Щугарев, Эдуард Реджепов
В ролях: Сергей Плотников (II), Сергей Пиотровский, Антон Семкин, Юрий Тарасов, Константин Глушков, Дмитрий Грачев (II), Сергей Любимов, Виктор Конухин, Наташа Фенкина, Олег Чудницов-Хартулари, Ольга Ковалёва, Николай Дроздовский, Арсен Симонян, Алексей Бояджи, Игорь Литовкин (II), Александр Числов, Святослав Насташевский, Ирина Баринова, Петр Кудряшов, Артур Казберов, Татьяна Демидова, Денис Яковлев, Александр Куренев, Ольга Кравченко, Виктор Немец, Юлия Пестова, Сергей Стегайлов, Григорий Багров, Алексей Овсянников, Павел Кипнис, Юрий Анпилогов, Ольга Чудакова, Игорь Ветров (II), Александр Былинин, Людмила Полякова, Наталья Сильвановская, Самад Мансуров, Сергей Кухарев, Руслан Спиридонов, Вадим Померанцев, Сергей Каплунов, Борис Химичёв, Александр Пашковский, Марина Королькова, Алексей Нестеров, Геннадий Шныптев, Елена Лагута
Описание: В Битовском ОВД обычно все спокойно, потому что подполковник Круча всегда держит руку на пульсе города. Это его город. В нем он родился и вырос. Здесь он всех знает, здесь Степан Круча на своей земле. Но нет-нет да и случится что-нибудь из ряда вон выходящее. И снова Степан Круча и его оперативная команда - Максим Ботнев и Саша Григорьев вступают в противоборство с преступниками.
В команде появляется новый сотрудник. Это аналитик Платон Шведов. Новый человек - это всегда новые отношения. Нельзя сказать, что Степан Круча дружелюбно настроен по отношению к нововведениям со стороны этого "умника" со странный именем Платон. Им предстоит найти общий язык на протяжении всего сезона, выработать новые способы взаимодействия в команде.
На этот раз Круча и опера столкнутся с синдикатом, распространяющим наркотики довольно оригинальным способом. В этом деле странным образом будут замешаны ограбления инкассаторских машин и афера на рынке недвижимости - кто-то хочет продать за бесценок коттеджный поселок. Круче придется вклиниться в распрю на мебельной фабрике, владельцы которой погибают один за другим при странных обстоятельствах. А в последних сериях детектива Круча выйдет на след организованного производства таинственной психотронной сыворотки, заставляющей людей идти на преступления.
Релиз:
Все раздачи сериала
СЭМПЛ
Качество: DVB
Формат: MPEG
Видео кодек: MPEG2
Аудио кодек: MPEG1 Layer 2
Видео: MPEG2 Video 720x576 (4:3) 25.00fps 4 157 Kbps, 0.401 bit/pixel
Аудио: MPEG Audio 48000Hz stereo 192 Кбит/сек

MI

Complete name : F:\TORENTRAZDACHI\Мент в законе-3 by CLIPMAN\Мент в законе-3.01_DVB by CLIPMAN.mpg
Format : MPEG-PS
File size : 1.45 GiB
Duration : 46mn 37s
Overall bit rate : 4 437 Kbps
Video
ID : 224 (0xE0)
Format : MPEG Video
Format version : Version 2
Format profile : Main@Main
Format settings, BVOP : No
Format settings, Matrix : Default
Duration : 46mn 37s
Bit rate mode : Variable
Bit rate : 4 157 Kbps
Nominal bit rate : 15.0 Mbps
Width : 720 pixels
Height : 576 pixels
Display aspect ratio : 4:3
Frame rate : 25.000 fps
Standard : PAL
Color space : YUV
Chroma subsampling : 4:2:0
Bit depth : 8 bits
Bits/(Pixel*Frame) : 0.401
Stream size : 1.35 GiB (94%)
Audio
ID : 192 (0xC0)
Format : MPEG Audio
Format version : Version 1
Format profile : Layer 2
Duration : 46mn 37s
Bit rate mode : Constant
Bit rate : 192 Kbps
Channel(s) : 2 channels
Sampling rate : 48.0 KHz
Stream size : 64.0 MiB (4%)

Внимание.!!!Раздача ведётся путём добавления новых серий

Внимание! Раздача ведётся путём добавления новых серий; при каждом добавлении создётся новый торрент. Чтобы начать докачку новой серии, пользователям необходимо сделать следующее:
(1) остановить скачивание,
(2) удалить старый торрент у себя из клиента (старые серии удалять не надо),
(3) скачать новый торрент и запустить его у себя в клиенте вместо старого, при этом указать клиенту путь в старую папку куда и должно происходить скачивание новых серий.
Ваш клиент при этом должен произвести хеширование (проверку) старой папки (если не производит сам - помогите ему сделать это), и будет докачивать только те серии которых у вас ещё нет. Старые серии при этом не удаляются, а продолжают раздаваться!
Eсли вы уже удалили старые серии, то предотвратить повторную закачку старых серий можно, отжав галочку в соответсвующих местах при запуске нового торрента. По возможности, желательно не удалять старые серии как можно дольше чтобы релизёр не столько продолжал раздавать старые серии, а смог сконцентрироваться на новых.

Скриншоты

Вы не можете начинать темы
Вы не можете отвечать на сообщения
Вы не можете редактировать свои сообщения
Вы не можете удалять свои сообщения
Вы не можете голосовать в опросах
Вы не можете прикреплять файлы к сообщениям
Вы можете скачивать файлы
!ВНИМАНИЕ!

Сайт не предоставляет электронные версии произведений, а занимается лишь коллекционированием и каталогизацией ссылок, присылаемых и публикуемых на форуме нашими читателями. Если вы являетесь правообладателем какого-либо представленного материала и не желаете, чтобы ссылка на него находилась в нашем каталоге, свяжитесь с нами, и мы незамедлительно удалим ее. Файлы для обмена на трекере предоставлены пользователями сайта, и администрация не несет ответственности за их содержание. Просьба не заливать файлы, защищенные авторскими правами, а также файлы нелегального содержания!

Искали программы, игры, дополнения, музыка mp3, аниме, аудио книги, журналы? Добро пожаловать на свободный торрент трекер B-Tor.Ru, у нас можно скачать бесплатно, без смс и регистрации и прочих ограничений лучшие, отборные сборки программ, игр. Скачать торрентом не составит труда даже не опытному пользователю. Раздачи ежедневно обновляются, только лучшие и качественные раздачи, подробные описания и скриншоты. Огромная коллекция программ для работы со звуком, графикой, дизайном, а так же множество плагинов и инструментов к ним с подробной инструкцией и рекомендациями. Прошивки для навигаторов, карты. Разнообразные игры, для Windows, Linux. В коллекцие есть и старые игры любых жанров, Rpg, Action, Shooter, strategy Множество дополнений, модификаций, сценариев для популярных игр в жанре экш, рпг, гонки, стратегии, логические игры. Множество аддонов и сценариев для Microsoft Flight Simulator Большая коллекция книг, учебников. Если нет возможности купить печатное издание - смело скачивайте цифровую версию книги или, быть может, журнала. Не любите читать - можно загрузить бесплатно аудикнигу. Для веб дизайнеров и программистов так же найдется множество специализированного софта, таких как: редакторы с подсветкой, среды программирования, компоненты, системы управления базами данных, разнообразные скрипты и шаблоны. Не так давно у нас появился материал для автолюбителей и владельцев мото - оригинальные и неоригинальные каталоги запчастей, книги и журналы по ремонту и обслуживанию, видеоуроки, статьи по чип тюнингу, прошивкам. Процедура получения контента элементарная, достаточно просто скачать торрент файл и добавить его в загрузку в вашем торрент клиенте. Если у вас нет специального торрент клиента, вы можете его скачать у нас.