Секретные материалы / The X-Files / Сезон: 8 / Серии: 1-21 из 21 (Роберт Мэндел / Robert Mandel) [2000, США, Канада, Фантастика, триллер, детектив, WEB-DL 720p] MVO (ОРТ) + DVO (Рен-ТВ) + AVO (Живов) + MVO (2+2) + Original + Sub (rus, eng) 

Цитировать
Секретные материалы / The X-Files

-
Год выпуска: 2000-2001
Страна: США , Канада
Жанр: Фантастика, триллер, детектив
Продолжительность: 21 х ~ 00:45:00
-
Перевод 1: Профессиональный (многоголосый закадровый) ОРТ
Перевод 2: Профессиональный (двухголосый закадровый) Рен-ТВ
Перевод 3: Авторский (одноголосый закадровый) Живов
Перевод 4: Профессиональный (многоголосый закадровый) 2+2
-
Режиссёр: Роберт Мэндел / Robert Mandel
В ролях: Джиллиан Андерсон, Дэвид Духовны, Роберт Патрик, Митч Пилегги, Уильям Б. Дэвис, Николас Ли, Том Брэйдвуд, Дин Хаглунд, Брюс Харвуд
-
Описание: Специальному агенту Дане Скалли, доктору и преподавателю академии ФБР в Вирджинии, поручают работу в паре с агентом Фоксом Малдером над проектом «Секретные материалы», архивом таинственных, нерешенных дел ФБР, которые зачастую связаны с паранормальными явлениями, случаями вампиризма и оборотничества, нападением генетических мутантов, свидетельствами о похищении людей пришельцами…
Малдер верит в пришельцев и пытается убедить скептика Скалли, что не всё и не всегда поддаётся разумному объяснению. В своих дискуссиях Малдер и Скалли не столько стараются убедить друг друга, сколько получают удовольствие от самого общения. Постепенно первоначальное взаимное недоверие перерастает в дружбу, а чуть позже и в более глубокое чувство.
-

-
Доп. информация:
Релиз -
Сборка и рип видео - lipovan
Источник - iTunes
Работа со звуком и тайминг субтитров - SerGV
Огромная благодарность за звук ОРТ, Рен-ТВ и Живова - RoxMarty
Перевод субтитров - notabenoid
-
Ссылка на все раздачи сериала // Сэмпл
-
Качество: WEB-DL 720p
Контейнер: MKV
Видео: MPEG-4 AVC, ~ 3000 kbps, 1280x720, 23.976 fps, 0.136 bit/pixel
Аудио #1: Russian - 48 kHz, AC3 Dolby Digital, 2/0 (L,R) ch, ~192 kbps avg - ОРT
Аудио #2: Russian - 48 kHz, AC3 Dolby Digital, 2/0 (L,R) ch, ~192 kbps avg - Рен-ТВ
Аудио #3: Russian - 48 kHz, AC3 Dolby Digital, 2/0 (L,R) ch, ~192 kbps avg - Живов
Аудио #4: Ukrainian - 48 kHz, AC3 Dolby Digital, 2/0 (L,R) ch, ~192 kbps avg - 2+2
Аудио #4: English - 48 kHz, AC3, 3/2 (L,C,R,l,r) + LFE ch, ~384.00 kbps avg - Оригинал
Субтитры: Русские, английские-

Список серий

01. Внутри / Within
02. Снаружи / Without
03. Терпение / Patience
04. Кукушата / Roadrunners
05. Заклинание / Invocation
06. Убийство / Redrum
07. Через отрицание / Via Negativa
08. Дератизация / Surekill
09. Металлолом / Salvage
10. Возмездие / Badlaa
11. Дар / The Gift
12. Медуза / Medusa
13. Вручную / Per Manum
14. Этого не может быть / This Is Not Happening
15. Живой мертвец / Deadalive
16. Три слова / Three Words
17. Эмпедокл / Empedocles
18. Они идут / Vienen
19. Одиночка / Alone
20. Сущность / Essence
21. Существование / Existence
-

MediaInfo

Общее
Уникальный идентификатор : 203613035273282096789195169540936412250 (0x992E71B520AEB72DB902C9EFBBB1AC5A)
Полное имя : D:\The.X-Files.S08.HDTVRip.720p.CasStudioTV\The.X-Files.S08E01.HDTVRip.720p.CasStudioTV.mkv
Формат : Matroska
Версия формата : Version 4 / Version 2
Размер файла : 1,30 Гбайт
Продолжительность : 44 м.
Общий поток : 4156 Кбит/сек
Дата кодирования : UTC 2015-08-11 07:15:46
Программа кодирования : mkvmerge v6.9.1 ('Blue Panther') 32bit built on Apr 18 2014 18:15:44
Библиотека кодирования : libebml v1.3.0 + libmatroska v1.4.1
Видео
Идентификатор : 1
Формат : AVC
Формат/Информация : Advanced Video Codec
Профиль формата : High@L4.1
Параметр CABAC формата : Да
Параметр ReFrames формата : 8 кадров
Идентификатор кодека : V_MPEG4/ISO/AVC
Продолжительность : 44 м.
Битрейт : 3000 Кбит/сек
Ширина : 1280 пикселей
Высота : 720 пикселей
Соотношение сторон : 16:9
Режим частоты кадров : Постоянный
Частота кадров : 23,976 кадра/сек
Цветовое пространство : YUV
Субдискретизация насыщенности : 4:2:0
Битовая глубина : 8 бит
Тип развёртки : Прогрессивная
Бит/(Пиксели*Кадры) : 0.136
Размер потока : 934 Мбайт (70%)
Библиотека кодирования : x264 core 146 r2538 121396c
Настройки программы : cabac=1 / ref=8 / deblock=1:-3:-3 / analyse=0x3:0x113 / me=umh / subme=8 / psy=1 / psy_rd=1.00:0.00 / mixed_ref=1 / me_range=24 / chroma_me=1 / trellis=1 / 8x8dct=1 / cqm=0 / deadzone=6,6 / fast_pskip=1 / chroma_qp_offset=-2 / threads=6 / lookahead_threads=2 / sliced_threads=0 / nr=0 / decimate=0 / interlaced=0 / bluray_compat=0 / constrained_intra=0 / bframes=8 / b_pyramid=2 / b_adapt=2 / b_bias=0 / direct=3 / weightb=1 / open_gop=0 / weightp=2 / keyint=240 / keyint_min=23 / scenecut=40 / intra_refresh=0 / rc_lookahead=50 / rc=2pass / mbtree=1 / bitrate=3000 / ratetol=1.0 / qcomp=0.60 / qpmin=0 / qpmax=69 / qpstep=4 / cplxblur=20.0 / qblur=0.5 / ip_ratio=1.10 / aq=1:1.00
Язык : English
Default : Да
Forced : Нет
Аудио #1
Идентификатор : 2
Формат : AC-3
Формат/Информация : Audio Coding 3
Расширение режима : CM (complete main)
Параметр Endianness формата : Big
Идентификатор кодека : A_AC3
Продолжительность : 44 м.
Вид битрейта : Постоянный
Битрейт : 192 Кбит/сек
Каналы : 2 канала
Расположение каналов : Front: L R
Частота : 48,0 КГц
Битовая глубина : 16 бит
Метод сжатия : С потерями
Размер потока : 61,4 Мбайт (5%)
Заголовок : ОРТ
Язык : Russian
Default : Да
Forced : Нет
Аудио #2
Идентификатор : 3
Формат : AC-3
Формат/Информация : Audio Coding 3
Расширение режима : CM (complete main)
Параметр Endianness формата : Big
Идентификатор кодека : A_AC3
Продолжительность : 44 м.
Вид битрейта : Постоянный
Битрейт : 192 Кбит/сек
Каналы : 2 канала
Расположение каналов : Front: L R
Частота : 48,0 КГц
Битовая глубина : 16 бит
Метод сжатия : С потерями
Размер потока : 61,4 Мбайт (5%)
Заголовок : Рен-ТВ
Язык : Russian
Default : Нет
Forced : Нет
Аудио #3
Идентификатор : 4
Формат : AC-3
Формат/Информация : Audio Coding 3
Расширение режима : CM (complete main)
Параметр Endianness формата : Big
Идентификатор кодека : A_AC3
Продолжительность : 44 м.
Вид битрейта : Постоянный
Битрейт : 192 Кбит/сек
Каналы : 2 канала
Расположение каналов : Front: L R
Частота : 48,0 КГц
Битовая глубина : 16 бит
Метод сжатия : С потерями
Размер потока : 61,4 Мбайт (5%)
Заголовок : Жтвов
Язык : Russian
Default : Нет
Forced : Нет
Аудио #4
Идентификатор : 5
Формат : AC-3
Формат/Информация : Audio Coding 3
Расширение режима : CM (complete main)
Параметр Endianness формата : Big
Идентификатор кодека : A_AC3
Продолжительность : 44 м.
Вид битрейта : Постоянный
Битрейт : 192 Кбит/сек
Каналы : 2 канала
Расположение каналов : Front: L R
Частота : 48,0 КГц
Битовая глубина : 16 бит
Метод сжатия : С потерями
Размер потока : 61,4 Мбайт (5%)
Заголовок : 2+2
Язык : Ukrainian
Default : Нет
Forced : Нет
Аудио #5
Идентификатор : 6
Формат : AC-3
Формат/Информация : Audio Coding 3
Расширение режима : CM (complete main)
Параметр Endianness формата : Big
Идентификатор кодека : A_AC3
Продолжительность : 44 м.
Вид битрейта : Постоянный
Битрейт : 384 Кбит/сек
Каналы : 6 каналов
Расположение каналов : Front: L C R, Side: L R, LFE
Частота : 48,0 КГц
Битовая глубина : 16 бит
Метод сжатия : С потерями
Размер потока : 123 Мбайт (9%)
Язык : English
Default : Нет
Forced : Нет
Текст #1
Идентификатор : 7
Формат : UTF-8
Идентификатор кодека : S_TEXT/UTF8
Идентификатор кодека/Информация : UTF-8 Plain Text
Заголовок : sub
Язык : Russian
Default : Нет
Forced : Нет
Текст #2
Идентификатор : 8
Формат : UTF-8
Идентификатор кодека : S_TEXT/UTF8
Идентификатор кодека/Информация : UTF-8 Plain Text
Заголовок : sub
Язык : English
Default : Нет
Forced : Нет
-

Скриншоты

-

Внимание!

Раздача ведётся путём добавления новых серий. При каждом добавлении создаётся новый торрент. Чтобы начать докачку новой серии, пользователям необходимо сделать следующее:
(1) остановить скачивание,
(2) удалить старый торрент у себя из клиента (старые серии удалять не надо),
(3) скачать новый торрент и запустить его у себя в клиенте вместо старого, при этом указать клиенту путь в старую папку куда и должно происходить скачивание новых серий.
Ваш клиент при этом должен произвести хеширование (проверку) старой папки (если не производит сам - помогите ему сделать это), и будет докачивать только те серии которых у вас ещё нет. Старые серии при этом не удаляются, а продолжают раздаваться!
Eсли вы уже удалили старые серии, то предотвратить повторную закачку старых серий можно, отжав галочку в соответствующих местах при запуске нового торрента. По возможности, желательно не удалять старые серии как можно дольше чтобы релизёр не столько продолжал раздавать старые серии, а смог сконцентрироваться на новых.
Вы не можете начинать темы
Вы не можете отвечать на сообщения
Вы не можете редактировать свои сообщения
Вы не можете удалять свои сообщения
Вы не можете голосовать в опросах
Вы не можете прикреплять файлы к сообщениям
Вы можете скачивать файлы
!ВНИМАНИЕ!

Сайт не предоставляет электронные версии произведений, а занимается лишь коллекционированием и каталогизацией ссылок, присылаемых и публикуемых на форуме нашими читателями. Если вы являетесь правообладателем какого-либо представленного материала и не желаете, чтобы ссылка на него находилась в нашем каталоге, свяжитесь с нами, и мы незамедлительно удалим ее. Файлы для обмена на трекере предоставлены пользователями сайта, и администрация не несет ответственности за их содержание. Просьба не заливать файлы, защищенные авторскими правами, а также файлы нелегального содержания!

Искали программы, игры, дополнения, музыка mp3, аниме, аудио книги, журналы? Добро пожаловать на свободный торрент трекер B-Tor.Ru, у нас можно скачать бесплатно, без смс и регистрации и прочих ограничений лучшие, отборные сборки программ, игр. Скачать торрентом не составит труда даже не опытному пользователю. Раздачи ежедневно обновляются, только лучшие и качественные раздачи, подробные описания и скриншоты. Огромная коллекция программ для работы со звуком, графикой, дизайном, а так же множество плагинов и инструментов к ним с подробной инструкцией и рекомендациями. Прошивки для навигаторов, карты. Разнообразные игры, для Windows, Linux. В коллекцие есть и старые игры любых жанров, Rpg, Action, Shooter, strategy Множество дополнений, модификаций, сценариев для популярных игр в жанре экш, рпг, гонки, стратегии, логические игры. Множество аддонов и сценариев для Microsoft Flight Simulator Большая коллекция книг, учебников. Если нет возможности купить печатное издание - смело скачивайте цифровую версию книги или, быть может, журнала. Не любите читать - можно загрузить бесплатно аудикнигу. Для веб дизайнеров и программистов так же найдется множество специализированного софта, таких как: редакторы с подсветкой, среды программирования, компоненты, системы управления базами данных, разнообразные скрипты и шаблоны. Не так давно у нас появился материал для автолюбителей и владельцев мото - оригинальные и неоригинальные каталоги запчастей, книги и журналы по ремонту и обслуживанию, видеоуроки, статьи по чип тюнингу, прошивкам. Процедура получения контента элементарная, достаточно просто скачать торрент файл и добавить его в загрузку в вашем торрент клиенте. Если у вас нет специального торрент клиента, вы можете его скачать у нас.