Секретные материалы / The X-Files / Сезон: 10 / Серии: 1 из 6 (Крис Картер) [2016, США, Фантастика, WEB-DL 1080p] MVO (Jaskier, Lostfilm, Kravec, NewStudio) + DVO (Кубик В Кубе) + AVO (Визгунов) + DUB (ТВ3) + Original + Subs (Rus, Eng) 

Цитировать
-Секретные материалы | The X-Files-- • Год выпуска: 2016
• Страна: США
• Жанр: фантастика, триллер, драма, детектив
• Продолжительность: ~ 00:43:00-• Перевод: Профессиональный (многоголосый закадровый) - Jaskier (голоса ОРТ)
• Перевод: Профессиональный (многоголосый закадровый) - Lostfilm
• Перевод: Профессиональный (многоголосый закадровый) - Kravec
• Перевод: Профессиональный (многоголосый закадровый) - NewStudio
• Перевод: Профессиональный (двухголосый закадровый) - Кубик В Кубе
• Перевод: Авторский (одноголосый закадровый) - С. Визгунов
• Перевод: Профессиональный дублированный - ТВ3-• Режиссёр: Крис Картер, Дэрин Морган, Глен Морган-• В ролях: Дэвид Духовны, Джиллиан Андерсон, Митч Пиледжи, Уильям Б. Дэвис, Робби Амелл, Том Брэйдвуд, Дин Хэглунд, Брюс Харвуд, Джоэл МакХэйл, Лорен Эмброуз-• Описание: Специальные агенты ФБР, Фокс Малдер и Дана Скалли, снова работают вместе, чтобы расследовать странные и необъяснимые дела, связанные с паранормальными явлениями.
- -Ссылка на предыдущие и альтернативные раздачи-• Качество: WEB-DL 1080p
• Формат: MKV
• Видео: X264, 1916x1076 (16:9), 23,976 fps, ~5000 kbps
• Аудио#1: Russian: 48 kHz, AC3, 3/2 (L,C,R,l,r) + LFE ch, ~384.00 kbps avg | Jaskier|
• Аудио#2: Russian: 48 kHz, AC3, 3/2 (L,C,R,l,r) + LFE ch, ~384.00 kbps avg | Lostfilm|
• Аудио#3: Russian: 48 kHz, AC3, 3/2 (L,C,R,l,r) + LFE ch, ~384.00 kbps avg | Студия Kravec|
• Аудио#4: Russian: 48 kHz, AC3, 3/2 (L,C,R,l,r) + LFE ch, ~384.00 kbps avg | NewStudio|
• Аудио#5: Russian: 48 kHz, AC3, 3/2 (L,C,R,l,r) + LFE ch, ~384.00 kbps avg | Кубик В Кубе|
• Аудио#6: Russian: 48 kHz, AC3, 3/2 (L,C,R,l,r) + LFE ch, ~384.00 kbps avg | С.Визгунов|
• Аудио#7: Russian: 48 kHz, AC3, 2/0 (L,R) ch, ~192.00 kbps avg |Дубляж, ТВ3|
• Аудио#8: English: 48 kHz, AC3, 3/2 (L,C,R,l,r) + LFE ch, ~384.00 kbps avg
• Субтитры: Russian ASS (Forced), Russian SRT (Forced), Russian ASS (full by Inga Boo), Russian SRT (full by Inga Boo), English-

✘ Релиз ✘

HDCLUB от lostrator
• Озвучка от студии Jaskier представлена "родными" ОРТ-голосами.
• Дорожки №1-4 Jaskier, LostFilm, NewStudio, Kravec получены наложением выделенных голосов на центр декодированного АС3.
• Дорожка №5 Кубик в Кубе получена наложением записи чистых голосов на центр декодированного АС3. Огромное спасибо студии за предоставленный материал.
• Дорожка №6 получена наложением записи чистого голоса Сергея Визгунова на центр декодированного АС3. Сбор средств на перевод и озвучку произведен совместно с сайтом е180
• Дорожка №7 дубляж от ТВ3 позаимствована из раздачи от Nez. Спасибо!
• Перевод субтитров от студии Кубик в Кубе. Огромный респект Инге Бу.
• Субтитры в формате ASS синхронизированы пофразово и стилизованы автором релиза lostrator. Экранный текст переведем forced субтитрами. В связи с несовместимостью многих аппаратов с форматом ASS, добавлены субтитры в стандартном SRT.

✘ MediaInfo ✘

Общее
Уникальный идентификатор                 : 50486079725810461967006060314939864546 (0x25FB43E8DB64E3B05FD27B846A13B5E2)
Полное имя                               : X:\ATorrent\The.X-Files.S10.1080p.WEBDL.AC3.7xRus.Eng.HDCLUB\The.X-Files.10x01.My.Struggle.1080p.WEBDL.AC3.7xRus.Eng.HDCLUB.mkv
Формат                                   : Matroska
Версия формата                           : Version 4 / Version 2
Размер файла                             : 2,42 Гбайт
Продолжительность                        : 43 м.
Общий поток                              : 7864 Кбит/сек
Название фильма                          : The X-Files Season 10: 01 My Struggle
Дата кодирования                         : UTC 2016-02-01 11:15:15
Программа кодирования                    : mkvmerge v8.7.0 ('All of the above') 64bit
Библиотека кодирования                   : libebml v1.3.3 + libmatroska v1.4.4
Attachements                             : 7fonts.ru_Xfiles.ttf / 7785.ttf / Arial Bold.ttf / corona.TTF / GillSans.ttc / Iris_Normal.ttf / Times New Roman.ttf / times.ttf / X-files2.ttf
Видео
Идентификатор                            : 1
Формат                                   : AVC
Формат/Информация                        : Advanced Video Codec
Профиль формата                          : High@L4
Параметр CABAC формата                   : Да
Параметр ReFrames формата                : 4 кадра
Идентификатор кодека                     : V_MPEG4/ISO/AVC
Продолжительность                        : 43 м.
Битрейт                                  : 4828 Кбит/сек
Ширина                                   : 1916 пикселей
Высота                                   : 1076 пикселей
Соотношение сторон                       : 16:9
Режим частоты кадров                     : Постоянный
Частота кадров                           : 23,976 кадра/сек
Цветовое пространство                    : YUV
Субдискретизация насыщенности            : 4:2:0
Битовая глубина                          : 8 бит
Тип развёртки                            : Прогрессивная
Бит/(Пиксели*Кадры)                      : 0.098
Размер потока                            : 1,48 Гбайт (61%)
Язык                                     : English
Default                                  : Да
Forced                                   : Нет
Цветовой диапазон                        : Limited
Основные цвета                           : BT.709
Характеристики трансфера                 : BT.709
Коэффициенты матрицы                     : BT.709
Аудио #1
Идентификатор                            : 2
Формат                                   : AC-3
Формат/Информация                        : Audio Coding 3
Расширение режима                        : CM (complete main)
Параметр Endianness формата              : Big
Идентификатор кодека                     : A_AC3
Продолжительность                        : 43 м.
Вид битрейта                             : Постоянный
Битрейт                                  : 384 Кбит/сек
Каналы                                   : 6 каналов
Расположение каналов                     : Front: L C R, Side: L R, LFE
Частота                                  : 48,0 КГц
Метод сжатия                             : С потерями
Размер потока                            : 121 Мбайт (5%)
Заголовок                                : Dolby Digital 5.1 @ Студия Jaskier  @ Многоголосый закадровый [ОРТ]
Язык                                     : Russian
Default                                  : Да
Forced                                   : Нет
Аудио #2
Идентификатор                            : 3
Формат                                   : AC-3
Формат/Информация                        : Audio Coding 3
Расширение режима                        : CM (complete main)
Параметр Endianness формата              : Big
Идентификатор кодека                     : A_AC3
Продолжительность                        : 43 м.
Вид битрейта                             : Постоянный
Битрейт                                  : 384 Кбит/сек
Каналы                                   : 6 каналов
Расположение каналов                     : Front: L C R, Side: L R, LFE
Частота                                  : 48,0 КГц
Метод сжатия                             : С потерями
Размер потока                            : 121 Мбайт (5%)
Заголовок                                : Dolby Digital 5.1 @ Студия Lostfilm  @ Многоголосый закадровый
Язык                                     : Russian
Default                                  : Нет
Forced                                   : Нет
Аудио #3
Идентификатор                            : 4
Формат                                   : AC-3
Формат/Информация                        : Audio Coding 3
Расширение режима                        : CM (complete main)
Параметр Endianness формата              : Big
Идентификатор кодека                     : A_AC3
Продолжительность                        : 43 м.
Вид битрейта                             : Постоянный
Битрейт                                  : 384 Кбит/сек
Каналы                                   : 6 каналов
Расположение каналов                     : Front: L C R, Side: L R, LFE
Частота                                  : 48,0 КГц
Метод сжатия                             : С потерями
Размер потока                            : 121 Мбайт (5%)
Заголовок                                : Dolby Digital 5.1 @ Студия Kravec  @ Многоголосый закадровый
Язык                                     : Russian
Default                                  : Нет
Forced                                   : Нет
Аудио #4
Идентификатор                            : 5
Формат                                   : AC-3
Формат/Информация                        : Audio Coding 3
Расширение режима                        : CM (complete main)
Параметр Endianness формата              : Big
Идентификатор кодека                     : A_AC3
Продолжительность                        : 43 м.
Вид битрейта                             : Постоянный
Битрейт                                  : 384 Кбит/сек
Каналы                                   : 6 каналов
Расположение каналов                     : Front: L C R, Side: L R, LFE
Частота                                  : 48,0 КГц
Метод сжатия                             : С потерями
Размер потока                            : 121 Мбайт (5%)
Заголовок                                : Dolby Digital 5.1 @ NewStudio  @ Многоголосый закадровый
Язык                                     : Russian
Default                                  : Нет
Forced                                   : Нет
Аудио #5
Идентификатор                            : 6
Формат                                   : AC-3
Формат/Информация                        : Audio Coding 3
Расширение режима                        : CM (complete main)
Параметр Endianness формата              : Big
Идентификатор кодека                     : A_AC3
Продолжительность                        : 43 м.
Вид битрейта                             : Постоянный
Битрейт                                  : 384 Кбит/сек
Каналы                                   : 6 каналов
Расположение каналов                     : Front: L C R, Side: L R, LFE
Частота                                  : 48,0 КГц
Метод сжатия                             : С потерями
Размер потока                            : 121 Мбайт (5%)
Заголовок                                : Dolby Digital 5.1 @ Кубик В Кубе  @ Двухголосый закадровый
Язык                                     : Russian
Default                                  : Нет
Forced                                   : Нет
Аудио #6
Идентификатор                            : 7
Формат                                   : AC-3
Формат/Информация                        : Audio Coding 3
Расширение режима                        : CM (complete main)
Параметр Endianness формата              : Big
Идентификатор кодека                     : A_AC3
Продолжительность                        : 43 м.
Вид битрейта                             : Постоянный
Битрейт                                  : 384 Кбит/сек
Каналы                                   : 6 каналов
Расположение каналов                     : Front: L C R, Side: L R, LFE
Частота                                  : 48,0 КГц
Метод сжатия                             : С потерями
Размер потока                            : 121 Мбайт (5%)
Заголовок                                : Dolby Digital 5.1 @ Сергей Визгунов @ Одноголосый авторский закадровый
Язык                                     : Russian
Default                                  : Нет
Forced                                   : Нет
Аудио #7
Идентификатор                            : 8
Формат                                   : AC-3
Формат/Информация                        : Audio Coding 3
Расширение режима                        : CM (complete main)
Параметр Endianness формата              : Big
Идентификатор кодека                     : A_AC3
Продолжительность                        : 43 м.
Вид битрейта                             : Постоянный
Битрейт                                  : 192 Кбит/сек
Каналы                                   : 2 канала
Расположение каналов                     : Front: L R
Частота                                  : 48,0 КГц
Метод сжатия                             : С потерями
Размер потока                            : 60,4 Мбайт (2%)
Заголовок                                : Dolby Digital 2.0 @ ТВ3 @ Дубляж
Язык                                     : Russian
Default                                  : Нет
Forced                                   : Нет
Аудио #8
Идентификатор                            : 9
Формат                                   : AC-3
Формат/Информация                        : Audio Coding 3
Расширение режима                        : CM (complete main)
Параметр Endianness формата              : Big
Идентификатор кодека                     : A_AC3
Продолжительность                        : 43 м.
Вид битрейта                             : Постоянный
Битрейт                                  : 384 Кбит/сек
Каналы                                   : 6 каналов
Расположение каналов                     : Front: L C R, Side: L R, LFE
Частота                                  : 48,0 КГц
Метод сжатия                             : С потерями
Задержка видео                           : 16 мс.
Размер потока                            : 121 Мбайт (5%)
Заголовок                                : Dolby Digital 5.1 @ English
Язык                                     : English
Default                                  : Нет
Forced                                   : Нет
Текст #1
Идентификатор                            : 10
Формат                                   : ASS
Идентификатор кодека                     : S_TEXT/ASS
Идентификатор кодека/Информация          : Advanced Sub Station Alpha
Метод сжатия                             : Без потерь
Заголовок                                : ASS @ Русские @ Форсированные
Язык                                     : Russian
Default                                  : Да
Forced                                   : Да
Текст #2
Идентификатор                            : 11
Формат                                   : ASS
Идентификатор кодека                     : S_TEXT/ASS
Идентификатор кодека/Информация          : Advanced Sub Station Alpha
Метод сжатия                             : Без потерь
Заголовок                                : ASS @ Русские @ lostrator @ Перевод Ингы Бу
Язык                                     : Russian
Default                                  : Нет
Forced                                   : Нет
Текст #3
Идентификатор                            : 12
Формат                                   : UTF-8
Идентификатор кодека                     : S_TEXT/UTF8
Идентификатор кодека/Информация          : UTF-8 Plain Text
Заголовок                                : SRT @ Русские @ Форсированные
Язык                                     : Russian
Default                                  : Нет
Forced                                   : Нет
Текст #4
Идентификатор                            : 13
Формат                                   : UTF-8
Идентификатор кодека                     : S_TEXT/UTF8
Идентификатор кодека/Информация          : UTF-8 Plain Text
Заголовок                                : SRT @ Русские @ lostrator @ Перевод Ингы Бу
Язык                                     : Russian
Default                                  : Нет
Forced                                   : Нет
Текст #5
Идентификатор                            : 14
Формат                                   : UTF-8
Идентификатор кодека                     : S_TEXT/UTF8
Идентификатор кодека/Информация          : UTF-8 Plain Text
Заголовок                                : SRT @ Английские
Язык                                     : English
Default                                  : Нет
Forced                                   : Нет

✘ Скриншоты ✘

✘ Раздача ведется путем добавления новых серий ✘

Когда раздача ведётся путём добавления новых серий, при каждом добавлении создётся новый торрент. Чтобы начать докачку новой серии, пользователям необходимо сделать следующее:
(1) остановить скачивание,
(2) удалить старый торрент у себя из клиента (старые серии удалять не надо),
(3) скачать новый торрент и запустить его у себя в клиенте вместо старого, при этом указать клиенту путь в старую папку, куда и должно происходить скачивание новых серий.
Ваш клиент при этом должен произвести хеширование (проверку) старой папки (если не производит сам - помогите ему сделать это), и будет докачивать только те серии, которых у вас ещё нет. Старые серии при этом не удаляются, а продолжают раздаваться!
Eсли вы уже удалили старые серии, то предотвратить повторную закачку старых серий можно, отжав галочку в соответсвующих местах при запуске нового торрента. По возможности, желательно не удалять старые серии как можно дольше, чтобы релизёр не столько продолжал раздавать старые серии, а смог сконцентрироваться на новых.
-
Вы не можете начинать темы
Вы не можете отвечать на сообщения
Вы не можете редактировать свои сообщения
Вы не можете удалять свои сообщения
Вы не можете голосовать в опросах
Вы не можете прикреплять файлы к сообщениям
Вы можете скачивать файлы
!ВНИМАНИЕ!

Сайт не предоставляет электронные версии произведений, а занимается лишь коллекционированием и каталогизацией ссылок, присылаемых и публикуемых на форуме нашими читателями. Если вы являетесь правообладателем какого-либо представленного материала и не желаете, чтобы ссылка на него находилась в нашем каталоге, свяжитесь с нами, и мы незамедлительно удалим ее. Файлы для обмена на трекере предоставлены пользователями сайта, и администрация не несет ответственности за их содержание. Просьба не заливать файлы, защищенные авторскими правами, а также файлы нелегального содержания!

Искали программы, игры, дополнения, музыка mp3, аниме, аудио книги, журналы? Добро пожаловать на свободный торрент трекер B-Tor.Ru, у нас можно скачать бесплатно, без смс и регистрации и прочих ограничений лучшие, отборные сборки программ, игр. Скачать торрентом не составит труда даже не опытному пользователю. Раздачи ежедневно обновляются, только лучшие и качественные раздачи, подробные описания и скриншоты. Огромная коллекция программ для работы со звуком, графикой, дизайном, а так же множество плагинов и инструментов к ним с подробной инструкцией и рекомендациями. Прошивки для навигаторов, карты. Разнообразные игры, для Windows, Linux. В коллекцие есть и старые игры любых жанров, Rpg, Action, Shooter, strategy Множество дополнений, модификаций, сценариев для популярных игр в жанре экш, рпг, гонки, стратегии, логические игры. Множество аддонов и сценариев для Microsoft Flight Simulator Большая коллекция книг, учебников. Если нет возможности купить печатное издание - смело скачивайте цифровую версию книги или, быть может, журнала. Не любите читать - можно загрузить бесплатно аудикнигу. Для веб дизайнеров и программистов так же найдется множество специализированного софта, таких как: редакторы с подсветкой, среды программирования, компоненты, системы управления базами данных, разнообразные скрипты и шаблоны. Не так давно у нас появился материал для автолюбителей и владельцев мото - оригинальные и неоригинальные каталоги запчастей, книги и журналы по ремонту и обслуживанию, видеоуроки, статьи по чип тюнингу, прошивкам. Процедура получения контента элементарная, достаточно просто скачать торрент файл и добавить его в загрузку в вашем торрент клиенте. Если у вас нет специального торрент клиента, вы можете его скачать у нас.