(Techno, Tech House) [CD] Dj Zoo - TunnelMusic - 2007, FLAC (tracks+.cue), lossless 

Цитировать
Dj Zoo / TunnelMusic
Жанр: Techno, Tech House
Носитель: CD
Год издания: 2007
Издатель (лейбл): Tunnel
Номер по каталогу: TMCD 007
Аудиокодек: FLAC (*.flac)
Тип рипа: tracks+.cue
Битрейт аудио: lossless
Продолжительность: 01:15:47
Источник (релизер): рип не мой, сканы - мои
Наличие сканов в содержимом раздачи: да
Треклист:
01. Unknown Artist - Untitled (7:39)
02. Unknown Artist - Untitled (5:43)
03. Marc Romboy vs. Gui Boratto feat. Luciana Villanova - Eurasia (Gui's Mix) (6:58)
04. Ida Engberg - Disco Volante (Sébastien Léger Remix) (4:48)
05. Klangweber - Drama (5:02)
06. Alter Ego - Why Not?! (5:05)
07. Sunder Skillz - Dirty Jokez (6:22)
08. The Crystal Method - Cherry Twist (Deamau5 Mix) (5:10)
09. DJ Zoo - Intro (Original Mix) (6:27)
10. DJ Zoo - I Like It (Original Mix) (5:02)
11. Unknown Artist - Untitled (5:25)
12. Unknown Artist - Untitled (3:31)
13. Dusty Kid - Kore (8:35)

Лог создания рипа

Exact Audio Copy V1.3 from 2. September 2016
EAC extraction logfile from 9. August 2017, 22:59
DJ Zoo / TunnelMusic
Used drive : PIONEER DVD-RW DVR-220 Adapter: 1 ID: 0
Read mode : SecureUtilize accurate stream : YesDefeat audio cache : YesMake use of C2 pointers : No
Read offset correction : 6Overread into Lead-In and Lead-Out : NoFill up missing offset samples with silence : YesDelete leading and trailing silent blocks : NoNull samples used in CRC calculations : YesUsed interface : Native Win32 interface for Win NT & 2000Gap handling : Appended to previous track
Used output format : User Defined EncoderSelected bitrate : 896 kBit/sQuality : HighAdd ID3 tag : NoCommand line compressor : C:\Program Files (x86)\Exact Audio Copy\Flac\flac.exeAdditional command line options : -8 -V -T "ARTIST=%artist%" -T "TITLE=%title%" -T "ALBUM=%albumtitle%" -T "DATE=%year%" -T "TRACKNUMBER=%tracknr%" -T "GENRE=%genre%" -T "PERFORMER=%albuminterpret%" -T "COMPOSER=%composer%" %haslyrics%--tag-from-file=LYRICS="%lyricsfile%"%haslyrics% -T "ALBUMARTIST=%albumartist%" -T "DISCNUMBER=%cdnumber%" -T "TOTALDISCS=%totalcds%" -T "TOTALTRACKS=%numtracks%" -T "COMMENT=%comment%" %source% -o %dest%
TOC of the extracted CD
Track | Start | Length | Start sector | End sector --------------------------------------------------------- 1 | 0:00.00 | 7:38.62 | 0 | 34411 2 | 7:38.62 | 5:42.48 | 34412 | 60109 3 | 13:21.35 | 6:57.53 | 60110 | 91437 4 | 20:19.13 | 4:47.46 | 91438 | 113008 5 | 25:06.59 | 5:02.34 | 113009 | 135692 6 | 30:09.18 | 5:04.44 | 135693 | 158536 7 | 35:13.62 | 6:22.20 | 158537 | 187206 8 | 41:36.07 | 5:09.64 | 187207 | 210445 9 | 46:45.71 | 6:27.28 | 210446 | 239498 10 | 53:13.24 | 5:02.20 | 239499 | 262168 11 | 58:15.44 | 5:25.08 | 262169 | 286551 12 | 63:40.52 | 3:31.11 | 286552 | 302387 13 | 67:11.63 | 8:34.65 | 302388 | 341002
Track 1
Filename E:\MUSIC\VA - DJ Zoo - TunnelMusic (2007) [CD-FLAC]\1-01. Unknown Artist - Untitled.wav
Pre-gap length 0:00:02.00
Peak level 100.0 % Extraction speed 3.1 X Track quality 99.9 % Test CRC 71E84EE6 Copy CRC 71E84EE6 Track not present in AccurateRip database Copy OK
Track 2
Filename E:\MUSIC\VA - DJ Zoo - TunnelMusic (2007) [CD-FLAC]\1-02. Unknown Artist - Untitled.wav
Peak level 100.0 % Extraction speed 3.4 X Track quality 99.9 % Test CRC BDA4E750 Copy CRC BDA4E750 Track not present in AccurateRip database Copy OK
Track 3
Filename E:\MUSIC\VA - DJ Zoo - TunnelMusic (2007) [CD-FLAC]\1-03. Marc Romboy vs. Gui Boratto feat. Luciana Villanova - Eurasia (Gui's Mix).wav
Peak level 100.0 % Extraction speed 4.1 X Track quality 100.0 % Test CRC BF6F60D7 Copy CRC BF6F60D7 Track not present in AccurateRip database Copy OK
Track 4
Filename E:\MUSIC\VA - DJ Zoo - TunnelMusic (2007) [CD-FLAC]\1-04. Ida Engberg - Disco Volante (Sébastien Léger Remix).wav
Peak level 100.0 % Extraction speed 4.3 X Track quality 100.0 % Test CRC 2DD1029C Copy CRC 2DD1029C Track not present in AccurateRip database Copy OK
Track 5
Filename E:\MUSIC\VA - DJ Zoo - TunnelMusic (2007) [CD-FLAC]\1-05. Klangweber - Drama.wav
Peak level 100.0 % Extraction speed 4.1 X Track quality 99.9 % Test CRC D5DB44FE Copy CRC D5DB44FE Track not present in AccurateRip database Copy OK
Track 6
Filename E:\MUSIC\VA - DJ Zoo - TunnelMusic (2007) [CD-FLAC]\1-06. Alter Ego - Why Not!.wav
Peak level 100.0 % Extraction speed 4.8 X Track quality 100.0 % Test CRC 2BFFB466 Copy CRC 2BFFB466 Track not present in AccurateRip database Copy OK
Track 7
Filename E:\MUSIC\VA - DJ Zoo - TunnelMusic (2007) [CD-FLAC]\1-07. Sunder Skillz - Dirty Jokez.wav
Peak level 100.0 % Extraction speed 5.2 X Track quality 100.0 % Test CRC 8C00E951 Copy CRC 8C00E951 Track not present in AccurateRip database Copy OK
Track 8
Filename E:\MUSIC\VA - DJ Zoo - TunnelMusic (2007) [CD-FLAC]\1-08. The Crystal Method - Cherry Twist (Deamau5 Mix).wav
Peak level 100.0 % Extraction speed 5.3 X Track quality 100.0 % Test CRC C7E32851 Copy CRC C7E32851 Track not present in AccurateRip database Copy OK
Track 9
Filename E:\MUSIC\VA - DJ Zoo - TunnelMusic (2007) [CD-FLAC]\1-09. DJ Zoo - Intro (Original Mix).wav
Peak level 100.0 % Extraction speed 5.6 X Track quality 100.0 % Test CRC 11298EF0 Copy CRC 11298EF0 Track not present in AccurateRip database Copy OK
Track 10
Filename E:\MUSIC\VA - DJ Zoo - TunnelMusic (2007) [CD-FLAC]\1-10. DJ Zoo - I Like It (Original Mix).wav
Peak level 100.0 % Extraction speed 5.7 X Track quality 100.0 % Test CRC 82F61667 Copy CRC 82F61667 Track not present in AccurateRip database Copy OK
Track 11
Filename E:\MUSIC\VA - DJ Zoo - TunnelMusic (2007) [CD-FLAC]\1-11. Unknown Artist - Untitled.wav
Peak level 100.0 % Extraction speed 5.7 X Track quality 100.0 % Test CRC 0072459F Copy CRC 0072459F Track not present in AccurateRip database Copy OK
Track 12
Filename E:\MUSIC\VA - DJ Zoo - TunnelMusic (2007) [CD-FLAC]\1-12. Unknown Artist - Untitled.wav
Peak level 100.0 % Extraction speed 5.0 X Track quality 99.9 % Test CRC 6F678314 Copy CRC 6F678314 Track not present in AccurateRip database Copy OK
Track 13
Filename E:\MUSIC\VA - DJ Zoo - TunnelMusic (2007) [CD-FLAC]\1-13. Dusty Kid - Kore.wav
Peak level 100.0 % Extraction speed 6.6 X Track quality 100.0 % Test CRC 5F474EF7 Copy CRC 5F474EF7 Track not present in AccurateRip database Copy OK
None of the tracks are present in the AccurateRip database
No errors occurred
End of status report
---- CUETools DB Plugin V2.1.6
[CTDB TOCID: LBKCgu04c5Gpt0eJzjiASq6ASJY-] disk not present in databaseSubmit result: LBKCgu04c5Gpt0eJzjiASq6ASJY- has been uploaded
==== Log checksum D365D57372161F00BA6E3D119A59A2F6DD2E8385233B733246402DE09981B3B9 ====

Содержание индексной карты (.CUE)

REM GENRE "Tech House, Techno"REM DATE 2007REM DISCID A911C20DREM COMMENT "ExactAudioCopy v1.3"PERFORMER "DJ Zoo"TITLE "TunnelMusic"REM COMPOSER ""FILE "1-01. Unknown Artist - Untitled.wav" WAVE  TRACK 01 AUDIO    TITLE "Untitled"    PERFORMER "Unknown Artist"    REM COMPOSER ""    INDEX 01 00:00:00FILE "1-02. Unknown Artist - Untitled.wav" WAVE  TRACK 02 AUDIO    TITLE "Untitled"    PERFORMER "Unknown Artist"    REM COMPOSER ""    INDEX 01 00:00:00FILE "1-03. Marc Romboy vs. Gui Boratto feat. Luciana Villanova - Eurasia (Gui's Mix).wav" WAVE  TRACK 03 AUDIO    TITLE "Eurasia (Gui's Mix)"    PERFORMER "Marc Romboy vs. Gui Boratto feat. Luciana Villanova"    REM COMPOSER ""    INDEX 01 00:00:00FILE "1-04. Ida Engberg - Disco Volante (Sebastien Leger Remix).wav" WAVE  TRACK 04 AUDIO    TITLE "Disco Volante (Sebastien Leger Remix)"    PERFORMER "Ida Engberg"    REM COMPOSER ""    INDEX 01 00:00:00FILE "1-05. Klangweber - Drama.wav" WAVE  TRACK 05 AUDIO    TITLE "Drama"    PERFORMER "Klangweber"    REM COMPOSER ""    INDEX 01 00:00:00FILE "1-06. Alter Ego - Why Not!.wav" WAVE  TRACK 06 AUDIO    TITLE "Why Not?!"    PERFORMER "Alter Ego"    REM COMPOSER ""    INDEX 01 00:00:00FILE "1-07. Sunder Skillz - Dirty Jokez.wav" WAVE  TRACK 07 AUDIO    TITLE "Dirty Jokez"    PERFORMER "Sunder Skillz"    REM COMPOSER ""    INDEX 01 00:00:00FILE "1-08. The Crystal Method - Cherry Twist (Deamau5 Mix).wav" WAVE  TRACK 08 AUDIO    TITLE "Cherry Twist (Deamau5 Mix)"    PERFORMER "The Crystal Method"    REM COMPOSER ""    INDEX 01 00:00:00FILE "1-09. DJ Zoo - Intro (Original Mix).wav" WAVE  TRACK 09 AUDIO    TITLE "Intro (Original Mix)"    PERFORMER "DJ Zoo"    REM COMPOSER ""    INDEX 01 00:00:00FILE "1-10. DJ Zoo - I Like It (Original Mix).wav" WAVE  TRACK 10 AUDIO    TITLE "I Like It (Original Mix)"    PERFORMER "DJ Zoo"    REM COMPOSER ""    INDEX 01 00:00:00FILE "1-11. Unknown Artist - Untitled.wav" WAVE  TRACK 11 AUDIO    TITLE "Untitled"    PERFORMER "Unknown Artist"    REM COMPOSER ""    INDEX 01 00:00:00FILE "1-12. Unknown Artist - Untitled.wav" WAVE  TRACK 12 AUDIO    TITLE "Untitled"    PERFORMER "Unknown Artist"    REM COMPOSER ""    INDEX 01 00:00:00FILE "1-13. Dusty Kid - Kore.wav" WAVE  TRACK 13 AUDIO    TITLE "Kore"    PERFORMER "Dusty Kid"    REM COMPOSER ""    INDEX 01 00:00:00
Вы не можете начинать темы
Вы не можете отвечать на сообщения
Вы не можете редактировать свои сообщения
Вы не можете удалять свои сообщения
Вы не можете голосовать в опросах
Вы не можете прикреплять файлы к сообщениям
Вы можете скачивать файлы
!ВНИМАНИЕ!

Сайт не предоставляет электронные версии произведений, а занимается лишь коллекционированием и каталогизацией ссылок, присылаемых и публикуемых на форуме нашими читателями. Если вы являетесь правообладателем какого-либо представленного материала и не желаете, чтобы ссылка на него находилась в нашем каталоге, свяжитесь с нами, и мы незамедлительно удалим ее. Файлы для обмена на трекере предоставлены пользователями сайта, и администрация не несет ответственности за их содержание. Просьба не заливать файлы, защищенные авторскими правами, а также файлы нелегального содержания!

Искали программы, игры, дополнения, музыка mp3, аниме, аудио книги, журналы? Добро пожаловать на свободный торрент трекер B-Tor.Ru, у нас можно скачать бесплатно, без смс и регистрации и прочих ограничений лучшие, отборные сборки программ, игр. Скачать торрентом не составит труда даже не опытному пользователю. Раздачи ежедневно обновляются, только лучшие и качественные раздачи, подробные описания и скриншоты. Огромная коллекция программ для работы со звуком, графикой, дизайном, а так же множество плагинов и инструментов к ним с подробной инструкцией и рекомендациями. Прошивки для навигаторов, карты. Разнообразные игры, для Windows, Linux. В коллекцие есть и старые игры любых жанров, Rpg, Action, Shooter, strategy Множество дополнений, модификаций, сценариев для популярных игр в жанре экш, рпг, гонки, стратегии, логические игры. Множество аддонов и сценариев для Microsoft Flight Simulator Большая коллекция книг, учебников. Если нет возможности купить печатное издание - смело скачивайте цифровую версию книги или, быть может, журнала. Не любите читать - можно загрузить бесплатно аудикнигу. Для веб дизайнеров и программистов так же найдется множество специализированного софта, таких как: редакторы с подсветкой, среды программирования, компоненты, системы управления базами данных, разнообразные скрипты и шаблоны. Не так давно у нас появился материал для автолюбителей и владельцев мото - оригинальные и неоригинальные каталоги запчастей, книги и журналы по ремонту и обслуживанию, видеоуроки, статьи по чип тюнингу, прошивкам. Процедура получения контента элементарная, достаточно просто скачать торрент файл и добавить его в загрузку в вашем торрент клиенте. Если у вас нет специального торрент клиента, вы можете его скачать у нас.