(Minimal, Tech House) [CD] VA - Clé (Märtini Brös) (Cle (Martini Bros) - All In Z17 - 2009, FLAC (tracks+.cue), lossless 

Цитировать
Clé (Märtini Brös) - All In Z17
Жанр: Minimal, Tech House
Носитель: CD
Год издания: 2009
Издатель (лейбл): Правительство Звука
Номер по каталогу: ПРЗ CD26738
Аудиокодек: FLAC (*.flac)
Тип рипа: tracks+.cue
Битрейт аудио: lossless
Продолжительность: 01:14:40
Источник (релизер): обмен
Наличие сканов в содержимом раздачи: нет
Треклист:
01. Burnski - Fertile (4:38)
02. Tracks And The City - I‘ll Be There (Gruber & Nurnberg Remix) (5:24)
03. Patrick Chardronnet - Dropout (4:03)
04. Martin Landsky - Man High (5:09)
05. Cle - Moon 15 (4:57)
06. Audio Soul Project - Reality Check (Vincenzo Remix) (5:21)
07. Loop Hotel - Room 101 (4:54)
08. Moodymanc - Snore (3:53)
09. Vincenzo presents The Phantom Image vs. Alexi Delano - The Lab (5:10)
10. Steve Bug - Trees Can't Dance (6:40)
11. Humate - Love Stimulation (Radio Slave Remix Edit) (4:02)
12. Burnski - Nosebonker (5:11)
13. Ryo Murakami - Doep (3:03)
14. Adultnapper - Madeleine (6:18)
15. Martini Bros. - Morphine Robot (5:57)

Лог создания рипа

Exact Audio Copy V1.0 beta 3 from 29. August 2011
EAC extraction logfile from 3. April 2013, 17:07
Clé (Märtini Brös.) / All In Z17
Used drive : TSSTcorpDVD+-RW TS-H653H Adapter: 2 ID: 0
Read mode : SecureUtilize accurate stream : YesDefeat audio cache : YesMake use of C2 pointers : No
Read offset correction : 697Overread into Lead-In and Lead-Out : NoFill up missing offset samples with silence : YesDelete leading and trailing silent blocks : NoNull samples used in CRC calculations : YesUsed interface : Native Win32 interface for Win NT & 2000Gap handling : Appended to previous track
Used output format : User Defined EncoderSelected bitrate : 896 kBit/sQuality : HighAdd ID3 tag : NoCommand line compressor : C:\Program Files (x86)\Exact Audio Copy\Flac\flac.exeAdditional command line options : -8 -V -T "ARTIST=%artist%" -T "TITLE=%title%" -T "ALBUM=%albumtitle%" -T "DATE=%year%" -T "TRACKNUMBER=%tracknr%" -T "GENRE=%genre%" -T "PERFORMER=%albuminterpret%" -T "COMPOSER=%composer%" %haslyrics%--tag-from-file=LYRICS="%lyricsfile%"%haslyrics% -T "ALBUMARTIST=%albumartist%" -T "DISCNUMBER=%cdnumber%" -T "TOTALDISCS=%totalcds%" -T "TOTALTRACKS=%numtracks%" -T "COMMENT=%comment%" %source% -o %dest%
TOC of the extracted CD
Track | Start | Length | Start sector | End sector --------------------------------------------------------- 1 | 0:00.00 | 4:37.42 | 0 | 20816 2 | 4:37.42 | 5:24.31 | 20817 | 45147 3 | 10:01.73 | 4:03.21 | 45148 | 63393 4 | 14:05.19 | 5:08.72 | 63394 | 86565 5 | 19:14.16 | 4:57.28 | 86566 | 108868 6 | 24:11.44 | 5:21.29 | 108869 | 132972 7 | 29:32.73 | 4:53.46 | 132973 | 154993 8 | 34:26.44 | 3:52.51 | 154994 | 172444 9 | 38:19.20 | 5:09.62 | 172445 | 195681 10 | 43:29.07 | 6:40.02 | 195682 | 225683 11 | 50:09.09 | 4:01.65 | 225684 | 243823 12 | 54:10.74 | 5:10.54 | 243824 | 267127 13 | 59:21.53 | 3:02.67 | 267128 | 280844 14 | 62:24.45 | 6:17.68 | 280845 | 309187 15 | 68:42.38 | 5:57.23 | 309188 | 335985
Track 1
Filename D:\MUSIC\VA - Clé (Märtini Brös.) - All In Z17 (2009) [FLAC]\1-01. Burnski - Fertile.wav
Pre-gap length 0:00:02.00
Peak level 99.5 % Extraction speed 1.8 X Track quality 99.9 % Test CRC 7EFAAA87 Copy CRC 7EFAAA87 Accurately ripped (confidence 1) [CD01179D] (AR v1) Copy OK
Track 2
Filename D:\MUSIC\VA - Clé (Märtini Brös.) - All In Z17 (2009) [FLAC]\1-02. Tracks And The City - I‘ll Be There (Gruber & Nürnberg Remix).wav
Peak level 99.5 % Extraction speed 2.4 X Track quality 100.0 % Test CRC D46F492B Copy CRC D46F492B Accurately ripped (confidence 1) [C204F78A] (AR v1) Copy OK
Track 3
Filename D:\MUSIC\VA - Clé (Märtini Brös.) - All In Z17 (2009) [FLAC]\1-03. Patrick Chardronnet - Dropout.wav
Peak level 99.5 % Extraction speed 2.4 X Track quality 100.0 % Test CRC C16A8D3E Copy CRC C16A8D3E Accurately ripped (confidence 1) [A60EC21D] (AR v1) Copy OK
Track 4
Filename D:\MUSIC\VA - Clé (Märtini Brös.) - All In Z17 (2009) [FLAC]\1-04. Martin Landsky - Man High.wav
Peak level 99.5 % Extraction speed 2.7 X Track quality 100.0 % Test CRC 36581B95 Copy CRC 36581B95 Accurately ripped (confidence 1) [865A05F9] (AR v1) Copy OK
Track 5
Filename D:\MUSIC\VA - Clé (Märtini Brös.) - All In Z17 (2009) [FLAC]\1-05. Clé - Moon 15.wav
Peak level 99.5 % Extraction speed 2.9 X Track quality 100.0 % Test CRC 209619D2 Copy CRC 209619D2 Accurately ripped (confidence 1) [658BE31C] (AR v1) Copy OK
Track 6
Filename D:\MUSIC\VA - Clé (Märtini Brös.) - All In Z17 (2009) [FLAC]\1-06. Audio Soul Project - Reality Check (Vincenzo Remix).wav
Peak level 99.5 % Extraction speed 2.6 X Track quality 99.9 % Test CRC A049F46F Copy CRC A049F46F Accurately ripped (confidence 1) [C2455C5A] (AR v1) Copy OK
Track 7
Filename D:\MUSIC\VA - Clé (Märtini Brös.) - All In Z17 (2009) [FLAC]\1-07. Loop Hotel - Room 101.wav
Peak level 99.5 % Extraction speed 3.2 X Track quality 100.0 % Test CRC BB24847F Copy CRC BB24847F Accurately ripped (confidence 1) [D63356E2] (AR v1) Copy OK
Track 8
Filename D:\MUSIC\VA - Clé (Märtini Brös.) - All In Z17 (2009) [FLAC]\1-08. Moodymanc - Snore.wav
Peak level 99.5 % Extraction speed 3.3 X Track quality 100.0 % Test CRC 80D838AF Copy CRC 80D838AF Accurately ripped (confidence 1) [1E0F7EA5] (AR v1) Copy OK
Track 9
Filename D:\MUSIC\VA - Clé (Märtini Brös.) - All In Z17 (2009) [FLAC]\1-09. Vincenzo presents The Phantom Image vs. Alexi Delano - The Lab.wav
Peak level 99.5 % Extraction speed 3.5 X Track quality 100.0 % Test CRC 2F15120C Copy CRC 2F15120C Accurately ripped (confidence 1) [DAC111DC] (AR v1) Copy OK
Track 10
Filename D:\MUSIC\VA - Clé (Märtini Brös.) - All In Z17 (2009) [FLAC]\1-10. Steve Bug - Trees Can't Dance.wav
Peak level 99.5 % Extraction speed 3.1 X Track quality 99.9 % Test CRC 1337B7BF Copy CRC 1337B7BF Accurately ripped (confidence 1) [FCD9A2E5] (AR v1) Copy OK
Track 11
Filename D:\MUSIC\VA - Clé (Märtini Brös.) - All In Z17 (2009) [FLAC]\1-11. Humate - Love Stimulation (Radio Slave Remix Edit).wav
Peak level 99.5 % Extraction speed 3.7 X Track quality 100.0 % Test CRC B7D3E37D Copy CRC B7D3E37D Accurately ripped (confidence 1) [44F629F6] (AR v1) Copy OK
Track 12
Filename D:\MUSIC\VA - Clé (Märtini Brös.) - All In Z17 (2009) [FLAC]\1-12. Burnski - Nosebonker.wav
Peak level 99.5 % Extraction speed 3.0 X Track quality 99.9 % Test CRC 57C4CAB6 Copy CRC 57C4CAB6 Accurately ripped (confidence 1) [B903BD88] (AR v1) Copy OK
Track 13
Filename D:\MUSIC\VA - Clé (Märtini Brös.) - All In Z17 (2009) [FLAC]\1-13. Ryo Murakami - Doep.wav
Peak level 99.5 % Extraction speed 2.5 X Track quality 99.9 % Test CRC C04879AB Copy CRC C04879AB Accurately ripped (confidence 1) [0E1E4D26] (AR v1) Copy OK
Track 14
Filename D:\MUSIC\VA - Clé (Märtini Brös.) - All In Z17 (2009) [FLAC]\1-14. Adultnapper - Madeleine.wav
Peak level 99.5 % Extraction speed 4.1 X Track quality 100.0 % Test CRC CAF58DB0 Copy CRC CAF58DB0 Accurately ripped (confidence 1) [4C7A7C2A] (AR v1) Copy OK
Track 15
Filename D:\MUSIC\VA - Clé (Märtini Brös.) - All In Z17 (2009) [FLAC]\1-15. Märtini Brös. - Morphine Robot.wav
Peak level 99.5 % Extraction speed 4.1 X Track quality 100.0 % Test CRC B7FFED7A Copy CRC B7FFED7A Accurately ripped (confidence 1) [180ED439] (AR v1) Copy OK
All tracks accurately ripped
No errors occurred
End of status report
---- CUETools DB Plugin V2.1.3
[CTDB TOCID: 4L041U4HYr1v9yNBSfcaoauRyaA-] disk not present in database, Submit result: 4L041U4HYr1v9yNBSfcaoauRyaA- has been uploaded
==== Log checksum 0E6BC6309FE29060F6E5F18F042C2CD8B312F6022D30F54E88547EF2437530A9 ====

Содержание индексной карты (.CUE)

REM GENRE "Minimal, Tech House"REM DATE 2009REM DISCID BE117F0FREM COMMENT "ExactAudioCopy v1.0b3"PERFORMER "Cle (Martini Bros.)"TITLE "All In Z17"FILE "1-01. Burnski - Fertile.wav" WAVE  TRACK 01 AUDIO    TITLE "Fertile"    PERFORMER "Burnski"    INDEX 01 00:00:00FILE "1-02. Tracks And The City - I‘ll Be There (Gruber & Nurnberg Remix).wav" WAVE  TRACK 02 AUDIO    TITLE "I‘ll Be There (Gruber & Nurnberg Remix)"    PERFORMER "Tracks And The City"    INDEX 01 00:00:00FILE "1-03. Patrick Chardronnet - Dropout.wav" WAVE  TRACK 03 AUDIO    TITLE "Dropout"    PERFORMER "Patrick Chardronnet"    INDEX 01 00:00:00FILE "1-04. Martin Landsky - Man High.wav" WAVE  TRACK 04 AUDIO    TITLE "Man High"    PERFORMER "Martin Landsky"    INDEX 01 00:00:00FILE "1-05. Cle - Moon 15.wav" WAVE  TRACK 05 AUDIO    TITLE "Moon 15"    PERFORMER "Cle"    INDEX 01 00:00:00FILE "1-06. Audio Soul Project - Reality Check (Vincenzo Remix).wav" WAVE  TRACK 06 AUDIO    TITLE "Reality Check (Vincenzo Remix)"    PERFORMER "Audio Soul Project"    INDEX 01 00:00:00FILE "1-07. Loop Hotel - Room 101.wav" WAVE  TRACK 07 AUDIO    TITLE "Room 101"    PERFORMER "Loop Hotel"    INDEX 01 00:00:00FILE "1-08. Moodymanc - Snore.wav" WAVE  TRACK 08 AUDIO    TITLE "Snore"    PERFORMER "Moodymanc"    INDEX 01 00:00:00FILE "1-09. Vincenzo presents The Phantom Image vs. Alexi Delano - The Lab.wav" WAVE  TRACK 09 AUDIO    TITLE "The Lab"    PERFORMER "Vincenzo presents The Phantom Image vs. Alexi Delano"    INDEX 01 00:00:00FILE "1-10. Steve Bug - Trees Can't Dance.wav" WAVE  TRACK 10 AUDIO    TITLE "Trees Can't Dance"    PERFORMER "Steve Bug"    INDEX 01 00:00:00FILE "1-11. Humate - Love Stimulation (Radio Slave Remix Edit).wav" WAVE  TRACK 11 AUDIO    TITLE "Love Stimulation (Radio Slave Remix Edit)"    PERFORMER "Humate"    INDEX 01 00:00:00FILE "1-12. Burnski - Nosebonker.wav" WAVE  TRACK 12 AUDIO    TITLE "Nosebonker"    PERFORMER "Burnski"    INDEX 01 00:00:00FILE "1-13. Ryo Murakami - Doep.wav" WAVE  TRACK 13 AUDIO    TITLE "Doep"    PERFORMER "Ryo Murakami"    INDEX 01 00:00:00FILE "1-14. Adultnapper - Madeleine.wav" WAVE  TRACK 14 AUDIO    TITLE "Madeleine"    PERFORMER "Adultnapper"    INDEX 01 00:00:00FILE "1-15. Martini Bros. - Morphine Robot.wav" WAVE  TRACK 15 AUDIO    TITLE "Morphine Robot"    PERFORMER "Martini Bros."    INDEX 01 00:00:00
Вы не можете начинать темы
Вы не можете отвечать на сообщения
Вы не можете редактировать свои сообщения
Вы не можете удалять свои сообщения
Вы не можете голосовать в опросах
Вы не можете прикреплять файлы к сообщениям
Вы можете скачивать файлы
!ВНИМАНИЕ!

Сайт не предоставляет электронные версии произведений, а занимается лишь коллекционированием и каталогизацией ссылок, присылаемых и публикуемых на форуме нашими читателями. Если вы являетесь правообладателем какого-либо представленного материала и не желаете, чтобы ссылка на него находилась в нашем каталоге, свяжитесь с нами, и мы незамедлительно удалим ее. Файлы для обмена на трекере предоставлены пользователями сайта, и администрация не несет ответственности за их содержание. Просьба не заливать файлы, защищенные авторскими правами, а также файлы нелегального содержания!

Искали программы, игры, дополнения, музыка mp3, аниме, аудио книги, журналы? Добро пожаловать на свободный торрент трекер B-Tor.Ru, у нас можно скачать бесплатно, без смс и регистрации и прочих ограничений лучшие, отборные сборки программ, игр. Скачать торрентом не составит труда даже не опытному пользователю. Раздачи ежедневно обновляются, только лучшие и качественные раздачи, подробные описания и скриншоты. Огромная коллекция программ для работы со звуком, графикой, дизайном, а так же множество плагинов и инструментов к ним с подробной инструкцией и рекомендациями. Прошивки для навигаторов, карты. Разнообразные игры, для Windows, Linux. В коллекцие есть и старые игры любых жанров, Rpg, Action, Shooter, strategy Множество дополнений, модификаций, сценариев для популярных игр в жанре экш, рпг, гонки, стратегии, логические игры. Множество аддонов и сценариев для Microsoft Flight Simulator Большая коллекция книг, учебников. Если нет возможности купить печатное издание - смело скачивайте цифровую версию книги или, быть может, журнала. Не любите читать - можно загрузить бесплатно аудикнигу. Для веб дизайнеров и программистов так же найдется множество специализированного софта, таких как: редакторы с подсветкой, среды программирования, компоненты, системы управления базами данных, разнообразные скрипты и шаблоны. Не так давно у нас появился материал для автолюбителей и владельцев мото - оригинальные и неоригинальные каталоги запчастей, книги и журналы по ремонту и обслуживанию, видеоуроки, статьи по чип тюнингу, прошивкам. Процедура получения контента элементарная, достаточно просто скачать торрент файл и добавить его в загрузку в вашем торрент клиенте. Если у вас нет специального торрент клиента, вы можете его скачать у нас.