Как Я Встретил Вашу Маму / How I Met Your Mother / Сезон: 6 / Серии: 1-24 (24) (Памела Фрайман) [2010-2011, США, комедия, мелодрама, HDTVRip 720p] Original + Rus Subs (SLIVAS) 

Цитировать
Как Я Встретил Вашу Маму: cезон 6
How I Met Your Mother: season 6
-
Год выпуска: 2010-2011
Страна: США
Жанр: Ситуационная комедия, Драма
Продолжительность: 21:00
Перевод: отсутствует
Русские субтитры: есть
Субтитры: английские, русские
Режиссёр: Памела Фриман
В ролях: Josh Radnor, Jason Segel, Cobie Smulders, Neil Patrick Harris, Alyson Hannigan
Описание: Американский ситком, созданный Картером Бейзом и Томасом Крейгом, повествующий о взгляде из будущего на события жизни молодых людей в современном Нью-Йорке. Сериал отличается нелинейным построением многих серий, когда показывается сначала конец истории, и только затем вся сюжетная линия, приводящая к нему.
Главный герой Тед, сидя на диване, в далёком 2030 году рассказывает своим взрослым детям о собственной молодости, а также истории жизни своих друзей, происходившие с 2005 года (иногда раньше).
Доп. информация:
IMDB User Rating: 8.8/10
ru.wikipedia
en.wikipedia

Все раздачи сериала
Сэмпл

Список серий

Episode 1: Big Days / 20 September 2010
Episode 2: Cleaning House / 27 September 2010
Episode 3: Unfinished / 4 October 2010
Episode 4: Subway Wars / 11 October 2010
Episode 5: Architect of Destruction / 18 October 2010
Episode 6: The Dark Side / 25 October 2010
Episode 7: Canning Randy / 1 November 2010
Episode 8: Natural History / 8 November 2010
Episode 9: Glitter / 15 November 2010
Episode 10: Blitzgiving / 22 November 2010
Episode 11: The Mermaid Theory / 06 December 2010
Episode 12: False Positive / 13 December 2010
Episode 13: Bad News / 3 January 2011
Episode 14: Last Words / 17 January 2011
Episode 15: Oh Honey / 7 February 2011
Episode 16: Desperation Day / 14 February 2011
Episode 17: Garbage Island / 21 February 2011
Episode 18: Heart Failure / 28 February 2011
Episode 19: Legendaddy / 21 March 2011
Episode 20: The Exploding Meatball Sub / 11 April 2011
Episode 21: Hopeless / 18 April 2011
Episode 22: The Perfect Cocktail / 2 May 2011
Episode 23: Landmarks / 9 May 2011
Episode 24: Challenge Accepted / 16 May 2011
Качество: HDTV 720p
Формат: MKV
Видео кодек: H.264
Аудио кодек: AC3
Видео: MPEG4 Video (H264) 1280x720 23.98fps 3200Kbps 0.144 bit/pixel
Аудио: Dolby AC3 48000Hz 6ch 448Kbps

MI

General
Complete name : D:\video\mpeg4\!serial\How I Met Your Mother - Season 6\How.I.Met.Your.Mother.S06E01.720p.HDTV.X264-DIMENSION.mkv
Format : Matroska
File size : 559 MiB
Duration : 21mn 5s
Overall bit rate : 3 704 Kbps
Encoded date : UTC 2010-09-20 17:27:46
Writing application : mkvmerge v3.0.0 ('Hang up your Hang-Ups') built on Apr 19 2010 11:58:49
Writing library : libebml v0.7.7 + libmatroska v0.8.1
Video
ID : 1
Format : AVC
Format/Info : Advanced Video Codec
Format profile : High@L4.1
Format settings, CABAC : Yes
Format settings, ReFrames : 7 frames
Muxing mode : Container profile=Unknown@4.1
Codec ID : V_MPEG4/ISO/AVC
Duration : 21mn 5s
Bit rate : 3 183 Kbps
Nominal bit rate : 3 255 Kbps
Width : 1 280 pixels
Height : 720 pixels
Display aspect ratio : 16:9
Frame rate : 23.976 fps
Resolution : 8 bits
Colorimetry : 4:2:0
Scan type : Progressive
Bits/(Pixel*Frame) : 0.144
Stream size : 480 MiB (86%)
Writing library : x264 core 104 r1713 c276662
Encoding settings : cabac=1 / ref=7 / deblock=1:-1:-1 / analyse=0x3:0x113 / me=umh / subme=9 / psy=1 / psy_rd=1.03:0.02 / mixed_ref=1 / me_range=16 / chroma_me=1 / trellis=1 / 8x8dct=1 / cqm=0 / deadzone=21,11 / fast_pskip=0 / chroma_qp_offset=-3 / threads=6 / sliced_threads=0 / nr=0 / decimate=1 / interlaced=0 / constrained_intra=0 / bframes=4 / b_pyramid=2 / b_adapt=1 / b_bias=0 / direct=3 / weightb=1 / open_gop=0 / weightp=2 / keyint=250 / keyint_min=23 / scenecut=40 / intra_refresh=0 / rc_lookahead=40 / rc=2pass / mbtree=1 / bitrate=3255 / ratetol=1.0 / qcomp=0.60 / qpmin=10 / qpmax=51 / qpstep=4 / cplxblur=20.0 / qblur=0.5 / ip_ratio=1.40 / aq=1:1.00
Language : English
Audio
ID : 2
Format : AC-3
Format/Info : Audio Coding 3
Format_Settings_ModeExtension : CM (complete main)
Codec ID : A_AC3
Duration : 21mn 5s
Bit rate mode : Constant
Bit rate : 448 Kbps
Channel(s) : 6 channels
Channel positions : Front: L C R, Side: L R, LFE
Sampling rate : 48.0 KHz
Stream size : 67.6 MiB (12%)

Скриншоты

Внимание! Раздача ведётся путём добавления новых серий

Внимание! Раздача ведётся путём добавления новых серий; при каждом добавлении создаётся новый торрент. Чтобы начать докачку новой серии, пользователям необходимо сделать следующее:
(1) остановить скачивание,
(2) удалить старый торрент у себя из клиента (старые серии удалять не надо),
(3) скачать новый торрент и запустить его у себя в клиенте вместо старого, при этом указать клиенту путь в старую папку куда и должно происходить скачивание новых серий.
Ваш клиент при этом должен произвести хеширование (проверку) старой папки (если не производит сам - помогите ему сделать это), и будет докачивать только те серии которых у вас ещё нет. Старые серии при этом не удаляются, а продолжают раздаваться!
Eсли вы уже удалили старые серии, то предотвратить повторную закачку старых серий можно, отжав галочку в соответствующих местах при запуске нового торрента. По возможности, желательно не удалять старые серии как можно дольше чтобы релизёр не столько продолжал раздавать старые серии, а смог сконцентрироваться на новых.
Вы не можете начинать темы
Вы не можете отвечать на сообщения
Вы не можете редактировать свои сообщения
Вы не можете удалять свои сообщения
Вы не можете голосовать в опросах
Вы не можете прикреплять файлы к сообщениям
Вы можете скачивать файлы
!ВНИМАНИЕ!

Сайт не предоставляет электронные версии произведений, а занимается лишь коллекционированием и каталогизацией ссылок, присылаемых и публикуемых на форуме нашими читателями. Если вы являетесь правообладателем какого-либо представленного материала и не желаете, чтобы ссылка на него находилась в нашем каталоге, свяжитесь с нами, и мы незамедлительно удалим ее. Файлы для обмена на трекере предоставлены пользователями сайта, и администрация не несет ответственности за их содержание. Просьба не заливать файлы, защищенные авторскими правами, а также файлы нелегального содержания!

Искали программы, игры, дополнения, музыка mp3, аниме, аудио книги, журналы? Добро пожаловать на свободный торрент трекер B-Tor.Ru, у нас можно скачать бесплатно, без смс и регистрации и прочих ограничений лучшие, отборные сборки программ, игр. Скачать торрентом не составит труда даже не опытному пользователю. Раздачи ежедневно обновляются, только лучшие и качественные раздачи, подробные описания и скриншоты. Огромная коллекция программ для работы со звуком, графикой, дизайном, а так же множество плагинов и инструментов к ним с подробной инструкцией и рекомендациями. Прошивки для навигаторов, карты. Разнообразные игры, для Windows, Linux. В коллекцие есть и старые игры любых жанров, Rpg, Action, Shooter, strategy Множество дополнений, модификаций, сценариев для популярных игр в жанре экш, рпг, гонки, стратегии, логические игры. Множество аддонов и сценариев для Microsoft Flight Simulator Большая коллекция книг, учебников. Если нет возможности купить печатное издание - смело скачивайте цифровую версию книги или, быть может, журнала. Не любите читать - можно загрузить бесплатно аудикнигу. Для веб дизайнеров и программистов так же найдется множество специализированного софта, таких как: редакторы с подсветкой, среды программирования, компоненты, системы управления базами данных, разнообразные скрипты и шаблоны. Не так давно у нас появился материал для автолюбителей и владельцев мото - оригинальные и неоригинальные каталоги запчастей, книги и журналы по ремонту и обслуживанию, видеоуроки, статьи по чип тюнингу, прошивкам. Процедура получения контента элементарная, достаточно просто скачать торрент файл и добавить его в загрузку в вашем торрент клиенте. Если у вас нет специального торрент клиента, вы можете его скачать у нас.