Секретные Материалы / The X-Files / Сезон: 1 / Серии: 00-23 из 23 (Роберт Мэндел) [1993, США, Канада, Фантастика, Триллер, Детектив, WEBRip 1080p] Dub (ТВ3) + MVO (Tycoon) + MVO (Ren-TV) + MVO (ОРТ) + Original DD 5.1 

Цитировать
Секретные Материалы / The X-Files
Год выпуска: 1993
Страна: США, Канада
Жанр: Фантастика, Триллер, Детектив
Продолжительность: 45 минут
Перевод: Профессиональный (дублированный) ТВ3
Перевод 2: Профессиональный (многоголосый закадровый) Tycoon
Перевод 3: Профессиональный (многоголосый закадровый) Ren-TV
Перевод 4: Профессиональный (многоголосый закадровый) ОРТ
Режиссёр: Роберт Мэндел
В ролях: Джиллиан Андерсон, Дэвид Духовны, Митч Пилледжи, Уильям Б. Дэвис и др.
Описание: Специальному агенту Дане Скалли, доктору и преподавателю академии ФБР в Вирджинии, поручают работу в паре с агентом Фоксом Малдером над проектом «Секретные материалы», архивом таинственных, нерешенных дел ФБР, которые зачастую связаны с паранормальными явлениями, случаями вампиризма и оборотничества, нападением генетических мутантов, свидетельствами о похищении людей пришельцами…
Малдер верит в пришельцев и пытается убедить скептика Скалли, что не всё и не всегда поддаётся разумному объяснению. В своих дискуссиях Малдер и Скалли не столько стараются убедить друг друга, сколько получают удовольствие от самого общения. Постепенно первоначальное взаимное недоверие перерастает в дружбу, а чуть позже и в более глубокое чувство.
Доп. информация: Исходник - WebRip с Netflix 1080p.
Надписи в видео английском переведены форсированными русскими субтитрами.
Ссылка на предыдущие и альтернативные раздачи: Все раздачи сериала
Сэмпл: https://yadi.sk/d/Bk55aI4_hDsZa
Качество: WEBRip 1080p (источник Netflix)
Контейнер: MKV
Видео: AVC, 1920x1080, 16:9, 23,976 fps, 7967 kbps
Аудио: RUS/ТВ3, AC-3, 48 kHz, 2ch, 384 kbps
Аудио 2: RUS/Tycoon, AC-3, 48 kHz, 2ch, 192 kbps
Аудио 3: RUS/Ren-TV, AC-3, 48 kHz, 2ch, 192 kbps
Аудио 4: RUS/ОРТ, AC-3, 48 kHz, 2ch, 192 kbps
Аудио 5: Eng, AC-3, 48 kHz, 6ch, 640 kbps
Субтитры: Русские, Русские к надписям (Форсированные), Английские

Список серий

1х00 - Пилот
1х01 - Бездонная Глотка
1х02 - Сжатие (Полная версия. Включает моменты, вырезанные 7MAXXX)
1х03 - Канал связи
1х04 - Дьявол из Джерси
1х05 - Тени (Добавлена английская дорожка, исправлено обозначение субтитров)
1х06 - Дух из Машины
1х07 - Лед
1х08 - Космос
1х09 - Падший Ангел
1х10 - Ева
1х11 - Огонь
1x12 - Там, За Морем
1х13 - Трансвестит
1х14 - Лазарь
1х15 - Молодой Сердцем
1х16 - В.Б.О.
1Х17 - Чудотворец
1х18 - Формы
1х19 - И пала тьма
1х20 - Тумс
1х21 - Заново Рожденный
1х22 - Роланд
1х23 - Колба Эрленмайера

MediaInfo

Общее
Уникальный идентификатор : 227847799935785808942881719116006247106 (0xAB69E3DB5BFF0152840CD2F7B1314AC2)
Полное имя : E:\X-Files Season 01\x-files-1x00-1080p-netflix-nfluence.mkv
Формат : Matroska
Версия формата : Version 4 / Version 2
Размер файла : 3,29 Гбайт
Продолжительность : 48 м.
Общий поток : 9762 Кбит/сек
Дата кодирования : UTC 2015-06-12 15:09:48
Программа кодирования : mkvmerge v7.9.0 ('Birds') 64bit
Библиотека кодирования : libebml v1.3.1 + libmatroska v1.4.2
DURATION : 00:47:24.420000000
NUMBER_OF_FRAMES : 16
NUMBER_OF_BYTES : 1509
_STATISTICS_WRITING_APP : mkvmerge v7.9.0 ('Birds') 64bit
_STATISTICS_WRITING_DATE_UTC : 2015-06-12 15:09:48
_STATISTICS_TAGS : BPS DURATION NUMBER_OF_FRAMES NUMBER_OF_BYTES
Видео
Идентификатор : 1
Формат : AVC
Формат/Информация : Advanced Video Codec
Профиль формата : High@L4.1
Параметр CABAC формата : Да
Параметр ReFrames формата : 4 кадра
Идентификатор кодека : V_MPEG4/ISO/AVC
Продолжительность : 48 м.
Битрейт : 7967 Кбит/сек
Ширина : 1920 пикселей
Высота : 1080 пикселей
Соотношение сторон : 16:9
Режим частоты кадров : Постоянный
Частота кадров : 23,976 кадра/сек
Цветовое пространство : YUV
Субдискретизация насыщенности : 4:2:0
Битовая глубина : 8 бит
Тип развёртки : Прогрессивная
Бит/(Пиксели*Кадры) : 0.160
Размер потока : 2,68 Гбайт (82%)
Заголовок : X-FILES 1x00
Библиотека кодирования : x264 core 146 r2538 121396c
Настройки программы : cabac=1 / ref=4 / deblock=1:-1:-1 / analyse=0x3:0x133 / me=umh / subme=10 / psy=1 / psy_rd=1.00:0.15 / mixed_ref=1 / me_range=24 / chroma_me=1 / trellis=2 / 8x8dct=1 / cqm=0 / deadzone=21,11 / fast_pskip=0 / chroma_qp_offset=-3 / threads=24 / lookahead_threads=4 / sliced_threads=0 / nr=0 / decimate=0 / interlaced=0 / bluray_compat=0 / constrained_intra=0 / bframes=8 / b_pyramid=2 / b_adapt=2 / b_bias=0 / direct=3 / weightb=1 / open_gop=0 / weightp=2 / keyint=250 / keyint_min=23 / scenecut=40 / intra_refresh=0 / rc_lookahead=60 / rc=crf / mbtree=1 / crf=18.0 / qcomp=0.60 / qpmin=0 / qpmax=69 / qpstep=4 / ip_ratio=1.40 / aq=2:0.90
Default : Да
Forced : Нет
Цветовой диапазон : Limited
Основные цвета : BT.709
Характеристики трансфера : BT.709
Коэффициенты матрицы : BT.709
Аудио #1
Идентификатор : 2
Формат : AC-3
Формат/Информация : Audio Coding 3
Расширение режима : CM (complete main)
Параметр Endianness формата : Big
Идентификатор кодека : A_AC3
Продолжительность : 48 м.
Вид битрейта : Постоянный
Битрейт : 384 Кбит/сек
Каналы : 2 канала
Расположение каналов : Front: L R
Частота : 48,0 КГц
Метод сжатия : С потерями
Размер потока : 132 Мбайт (4%)
Заголовок : X-FILES 1x00
Язык : Russian
Default : Да
Forced : Нет
Аудио #2
Идентификатор : 3
Формат : AC-3
Формат/Информация : Audio Coding 3
Расширение режима : CM (complete main)
Параметр Endianness формата : Big
Идентификатор кодека : A_AC3
Продолжительность : 48 м.
Вид битрейта : Постоянный
Битрейт : 192 Кбит/сек
Каналы : 2 канала
Расположение каналов : Front: L R
Частота : 48,0 КГц
Метод сжатия : С потерями
Размер потока : 66,2 Мбайт (2%)
Заголовок : Tycoon
Язык : Russian
Default : Нет
Forced : Нет
Аудио #3
Идентификатор : 4
Формат : AC-3
Формат/Информация : Audio Coding 3
Расширение режима : CM (complete main)
Параметр Endianness формата : Big
Идентификатор кодека : A_AC3
Продолжительность : 48 м.
Вид битрейта : Постоянный
Битрейт : 192 Кбит/сек
Каналы : 2 канала
Расположение каналов : Front: L R
Частота : 48,0 КГц
Метод сжатия : С потерями
Размер потока : 66,2 Мбайт (2%)
Заголовок : Ren-TV
Язык : Russian
Default : Нет
Forced : Нет
Аудио #4
Идентификатор : 5
Формат : AC-3
Формат/Информация : Audio Coding 3
Расширение режима : CM (complete main)
Параметр Endianness формата : Big
Идентификатор кодека : A_AC3
Продолжительность : 48 м.
Вид битрейта : Постоянный
Битрейт : 192 Кбит/сек
Каналы : 2 канала
Расположение каналов : Front: L R
Частота : 48,0 КГц
Метод сжатия : С потерями
Размер потока : 66,2 Мбайт (2%)
Заголовок : ORT
Язык : Russian
Default : Нет
Forced : Нет
Аудио #5
Идентификатор : 6
Формат : AC-3
Формат/Информация : Audio Coding 3
Расширение режима : CM (complete main)
Параметр Endianness формата : Big
Идентификатор кодека : A_AC3
Продолжительность : 48 м.
Вид битрейта : Постоянный
Битрейт : 640 Кбит/сек
Каналы : 6 каналов
Расположение каналов : Front: L C R, Side: L R, LFE
Частота : 48,0 КГц
Метод сжатия : С потерями
Размер потока : 221 Мбайт (7%)
Заголовок : DD 5.1
Язык : English
Default : Нет
Forced : Нет
Текст #1
Идентификатор : 7
Формат : UTF-8
Идентификатор кодека : S_TEXT/UTF8
Идентификатор кодека/Информация : UTF-8 Plain Text
Язык : Russian
Default : Да
Forced : Нет
Текст #2
Идентификатор : 8
Формат : UTF-8
Идентификатор кодека : S_TEXT/UTF8
Идентификатор кодека/Информация : UTF-8 Plain Text
Язык : English
Default : Нет
Forced : Нет
Текст #3
Идентификатор : 9
Формат : SSA
Идентификатор кодека : S_TEXT/SSA
Идентификатор кодека/Информация : Sub Station Alpha
Метод сжатия : Без потерь
Заголовок : Надписи
Язык : Russian
Default : Нет
Forced : Да
Меню
00:00:00.000 : en:Chapter 01
00:02:15.437 : en:Chapter 02
00:11:34.537 : en:Chapter 03
00:14:42.725 : en:Chapter 04
00:17:03.616 : en:Chapter 05
00:20:16.726 : en:Chapter 06
00:23:22.536 : en:Chapter 07
00:30:33.884 : en:Chapter 08
00:34:32.080 : en:Chapter 09
00:38:43.039 : en:Chapter 10
00:43:41.671 : en:Chapter 11
00:47:43.079 : en:Chapter 12

Скриншоты

Вы не можете начинать темы
Вы не можете отвечать на сообщения
Вы не можете редактировать свои сообщения
Вы не можете удалять свои сообщения
Вы не можете голосовать в опросах
Вы не можете прикреплять файлы к сообщениям
Вы можете скачивать файлы
!ВНИМАНИЕ!

Сайт не предоставляет электронные версии произведений, а занимается лишь коллекционированием и каталогизацией ссылок, присылаемых и публикуемых на форуме нашими читателями. Если вы являетесь правообладателем какого-либо представленного материала и не желаете, чтобы ссылка на него находилась в нашем каталоге, свяжитесь с нами, и мы незамедлительно удалим ее. Файлы для обмена на трекере предоставлены пользователями сайта, и администрация не несет ответственности за их содержание. Просьба не заливать файлы, защищенные авторскими правами, а также файлы нелегального содержания!

Искали программы, игры, дополнения, музыка mp3, аниме, аудио книги, журналы? Добро пожаловать на свободный торрент трекер B-Tor.Ru, у нас можно скачать бесплатно, без смс и регистрации и прочих ограничений лучшие, отборные сборки программ, игр. Скачать торрентом не составит труда даже не опытному пользователю. Раздачи ежедневно обновляются, только лучшие и качественные раздачи, подробные описания и скриншоты. Огромная коллекция программ для работы со звуком, графикой, дизайном, а так же множество плагинов и инструментов к ним с подробной инструкцией и рекомендациями. Прошивки для навигаторов, карты. Разнообразные игры, для Windows, Linux. В коллекцие есть и старые игры любых жанров, Rpg, Action, Shooter, strategy Множество дополнений, модификаций, сценариев для популярных игр в жанре экш, рпг, гонки, стратегии, логические игры. Множество аддонов и сценариев для Microsoft Flight Simulator Большая коллекция книг, учебников. Если нет возможности купить печатное издание - смело скачивайте цифровую версию книги или, быть может, журнала. Не любите читать - можно загрузить бесплатно аудикнигу. Для веб дизайнеров и программистов так же найдется множество специализированного софта, таких как: редакторы с подсветкой, среды программирования, компоненты, системы управления базами данных, разнообразные скрипты и шаблоны. Не так давно у нас появился материал для автолюбителей и владельцев мото - оригинальные и неоригинальные каталоги запчастей, книги и журналы по ремонту и обслуживанию, видеоуроки, статьи по чип тюнингу, прошивкам. Процедура получения контента элементарная, достаточно просто скачать торрент файл и добавить его в загрузку в вашем торрент клиенте. Если у вас нет специального торрент клиента, вы можете его скачать у нас.