Как Я Встретил Вашу Маму / How I Met Your Mother / Сезон: 1 / Серии: 1-22 (22) (Памела Фрайман) [2005, США, комедия, мелодрама, HDTVRip 720p] VO (Кураж-Бамбей) + Original + Subs (Rus, Eng) 

Цитировать
Как Я Встретил Вашу Маму / How I Met Your Mother
Год выпуска: 2005
Страна: США
Жанр: комедия, ситком
Продолжительность: ~21 минута
Перевод: Профессиональный (одноголосый) по версии Кураж-Бамбей
Русские субтитры: есть
Субтитры: русские, английские
Режиссёр: Памела Фрайман (Pamela Fryman)
В ролях: Джош Рэднор, Джейсон Сегел, Коби Смалдерс, Нил Патрик Хэррис, Эллисон Хэнниган
Описание: Как я встретил вашу маму — комедия про Теда и про то, как он влюбился. Все неприятности начинаются с того, что лучший друг Теда, Маршалл вдруг неожиданно сообщил, что он хочет сделать предложение своей давней подруге, Лили, воспитательнице детского сада. К тому времени Тед понимает, что ему нужно прилагать больше усилий, если он действительно надеется найти свою настоящую любовь. Помогает ему в этих поисках его друг Барни, убежденный холостяк, вечно со своим, иногда чересчур, мнением на все происходящее, со склонностью к костюмам и верным способом познакомиться с девушками. Когда Тед встречает Робин, он решает, что это любовь с первого взгляда, но у судьбы в запасе есть кое-что еще.
Доп. информация: Большое спасибо DaZorg и Dejin за работу над субтитрами.
Все раздачи сериала
Сэмпл
Качество: HDTV 720p
Формат: MKV
Видео кодек: x264
Аудио кодек: AC3
Видео: 1280x720, 25 fps, ~3500 Kbps, ~0.150 bit/pixel (CORTEXiPHAN)
Аудио: AC3 2.0 160 Kbps 48 Khz - по версии Кураж-Бамбей
Аудио: AC3 2.0 192 Kbps 48 Khz - оригинальная дорожка

MI

Общее
Уникальный идентификатор : 247606385794311266351796008962727405920 (0xBA47415A2DE3AEE8B82386D760C0E960)
Полное имя : .\HIMYM.season.1\HIMYM.1x01.Pilot.[HDTV.720p].by.npe3uDeHT.mkv
Формат : Matroska
Размер файла : 583 Мбайт
Продолжительность : 21 м.
Общий поток : 3835 Кбит/сек
Название фильма : How I met Your Mother. 1x01 Pilot
Дата кодирования : UTC 2011-11-22 05:17:41
Программа кодирования : mkvmerge v5.0.1 ('Es ist Sommer') built on Oct 9 2011 11:55:43
Библиотека кодирования : libebml v1.2.2 + libmatroska v1.3.0
Видео
Идентификатор : 1
Формат : AVC
Формат/Информация : Advanced Video Codec
Профиль формата : High@L4.1
Параметр CABAC формата : Да
Параметр ReFrames формата : 5 кадров
Режим смешивания : Header stripping
Идентификатор кодека : V_MPEG4/ISO/AVC
Продолжительность : 21 м.
Битрейт : 3482 Кбит/сек
Ширина : 1280 пикс.
Высота : 720 пикс.
Соотношение сторон : 16:9
Частота кадров : 25,000 кадр/сек
Цветовое пространство : YUV
Подвыборка цветности : 4:2:0
Битовая глубина : 8 бит
Тип развёртки : Прогрессивная
Бит/(Пиксели*Кадры) : 0.151
Размер потока : 518 Мбайт (89%)
Заголовок : 1x01 Pilot
Библиотека кодирования : x264 core 114 r1924 08d04a4
Настройки программы : cabac=1 / ref=5 / deblock=1:-1:-1 / analyse=0x3:0x113 / me=umh / subme=8 / psy=1 / psy_rd=1.00:0.00 / mixed_ref=1 / me_range=16 / chroma_me=1 / trellis=1 / 8x8dct=1 / cqm=0 / deadzone=21,11 / fast_pskip=1 / chroma_qp_offset=-2 / threads=12 / sliced_threads=0 / nr=0 / decimate=1 / interlaced=0 / constrained_intra=0 / bframes=3 / b_pyramid=0 / b_adapt=1 / b_bias=0 / direct=1 / weightb=1 / open_gop=0 / weightp=2 / keyint=250 / keyint_min=25 / scenecut=40 / intra_refresh=0 / rc_lookahead=40 / rc=2pass / mbtree=1 / bitrate=3482 / ratetol=1.0 / qcomp=0.60 / qpmin=10 / qpmax=51 / qpstep=4 / cplxblur=20.0 / qblur=0.5 / ip_ratio=1.40 / aq=1:1.00
Язык : English
Аудио #1
Идентификатор : 2
Формат : AC-3
Формат/Информация : Audio Coding 3
Расширение режима : CM (complete main)
Режим смешивания : Header stripping
Идентификатор кодека : A_AC3
Продолжительность : 21 м.
Вид битрейта : Постоянный
Битрейт : 160 Кбит/сек
Каналы : 2 канала
Расположение каналов : Front: L R
Частота : 48,0 КГц
Битовая глубина : 16 бит
Метод сжатия : С потерями
Размер потока : 24,3 Мбайт (4%)
Заголовок : Kuraj-Bambey (AC3 2.0 160 Kbps) VO
Язык : Russian
Аудио #2
Идентификатор : 3
Формат : AC-3
Формат/Информация : Audio Coding 3
Расширение режима : CM (complete main)
Режим смешивания : Header stripping
Идентификатор кодека : A_AC3
Продолжительность : 21 м.
Вид битрейта : Постоянный
Битрейт : 192 Кбит/сек
Каналы : 2 канала
Расположение каналов : Front: L R
Частота : 48,0 КГц
Битовая глубина : 16 бит
Метод сжатия : С потерями
Размер потока : 29,2 Мбайт (5%)
Заголовок : Original (AC3 2.0 192 Kbps)
Язык : English
Текст #1
Идентификатор : 4
Формат : UTF-8
Идентификатор кодека : S_TEXT/UTF8
Идентификатор кодека/Информация : UTF-8 Plain Text
Язык : English
Текст #2
Идентификатор : 5
Формат : UTF-8
Идентификатор кодека : S_TEXT/UTF8
Идентификатор кодека/Информация : UTF-8 Plain Text
Язык : Russian

Скриншоты


Вы не можете начинать темы
Вы не можете отвечать на сообщения
Вы не можете редактировать свои сообщения
Вы не можете удалять свои сообщения
Вы не можете голосовать в опросах
Вы не можете прикреплять файлы к сообщениям
Вы можете скачивать файлы
!ВНИМАНИЕ!

Сайт не предоставляет электронные версии произведений, а занимается лишь коллекционированием и каталогизацией ссылок, присылаемых и публикуемых на форуме нашими читателями. Если вы являетесь правообладателем какого-либо представленного материала и не желаете, чтобы ссылка на него находилась в нашем каталоге, свяжитесь с нами, и мы незамедлительно удалим ее. Файлы для обмена на трекере предоставлены пользователями сайта, и администрация не несет ответственности за их содержание. Просьба не заливать файлы, защищенные авторскими правами, а также файлы нелегального содержания!

Искали программы, игры, дополнения, музыка mp3, аниме, аудио книги, журналы? Добро пожаловать на свободный торрент трекер B-Tor.Ru, у нас можно скачать бесплатно, без смс и регистрации и прочих ограничений лучшие, отборные сборки программ, игр. Скачать торрентом не составит труда даже не опытному пользователю. Раздачи ежедневно обновляются, только лучшие и качественные раздачи, подробные описания и скриншоты. Огромная коллекция программ для работы со звуком, графикой, дизайном, а так же множество плагинов и инструментов к ним с подробной инструкцией и рекомендациями. Прошивки для навигаторов, карты. Разнообразные игры, для Windows, Linux. В коллекцие есть и старые игры любых жанров, Rpg, Action, Shooter, strategy Множество дополнений, модификаций, сценариев для популярных игр в жанре экш, рпг, гонки, стратегии, логические игры. Множество аддонов и сценариев для Microsoft Flight Simulator Большая коллекция книг, учебников. Если нет возможности купить печатное издание - смело скачивайте цифровую версию книги или, быть может, журнала. Не любите читать - можно загрузить бесплатно аудикнигу. Для веб дизайнеров и программистов так же найдется множество специализированного софта, таких как: редакторы с подсветкой, среды программирования, компоненты, системы управления базами данных, разнообразные скрипты и шаблоны. Не так давно у нас появился материал для автолюбителей и владельцев мото - оригинальные и неоригинальные каталоги запчастей, книги и журналы по ремонту и обслуживанию, видеоуроки, статьи по чип тюнингу, прошивкам. Процедура получения контента элементарная, достаточно просто скачать торрент файл и добавить его в загрузку в вашем торрент клиенте. Если у вас нет специального торрент клиента, вы можете его скачать у нас.