Теория Большого Взрыва / The Big Bang Theory / Сезон: 4 / Серии: 1-24 (24) (Марк Сендроуски) [2010-2011, США, Ситком, HDTV 1080i] VO (Кураж-Бамбей) + Subs (Rus, Eng) 

Цитировать
Теория Большого Взрыва / The Big Bang Theory
Год выпуска: 2010 - 2011
Страна: США
Жанр: Ситком
Продолжительность: 21 мин
Перевод: Профессиональный одноголосый закадровый (Кураж-Бамбей) оригинал (обе дорожки в 5.1)
Русские субтитры: есть
Субтитры: встроенные/внешние, русские/английские
Режиссёр: Марк Сендовски
В ролях: Джонни Галекки, Джим Парсонс, Кейли Куоко, Саймон Хельберг, Кунал Найяр
Описание: Два блестящих физика, Леонард и Шелдон, «великие умы», которые понимают как «работает вселенная». Но их гениальность ничуть не помогает им общаться с людьми, особенно с женщинами. Всё начинает меняться, когда напротив них поселяется красавица Пенни.
Когда Леонард и Шелдон встречают Пенни, Леонард сразу же начинает интересоваться ею. Он видит в общении с Пенни огромную перспективу… вплоть до любви, однако Шелдон понимает, что мечтам его друга не суждено сбыться.
Стоит также отметить пару странных друзей этих физиков: Воловиц, который любит употреблять фразы на разных языках, включая русский, и Раджеш Кутраппали, теряющий дар речи при виде женщин.
Список серий:
01. The Robotic Manipulation
02. The Cruciferous Vegetable Amplification
03. The Zazzy Substitution
04. The Hot Troll Deviation
05. The Desperation Emanation
06. The Irish Pub Formulation
07. The Apology Insufficiency
08. The 21-second Excitation
09. The Boyfriend Complexity
10. The Alien Parasite Hypothesis
11. The Justice League Recombination
12. The Bus Pants Utilization
13. The Love Car Displacement
14. The Thespian Catalyst
15. The Benefactor Factor
16. The Cohabitation Formulation
17. The Toast Derivation
18. The Prestidigitation Approximation
19. The Zarnecki Incursion
20. The Herb Garden Germination
21. The Agreement Dissection
22. The Wildebeest Implementation
23. The Engagement Reaction
24. The Roommate Transmogrification
[url=tracker.php?f=507&nm=The Big Bang Theory]Предыдущие и альтернативные раздачи[/url]
Blu-Ray с третьим сезоном в переводе Кураж-Бамбей
Качество: HDTV 1080i (arktona & hotshot2k3 (CtrlHD)) cэмпл
Формат: TS
Видео кодек: MPEG2
Аудио кодек: AC3
Видео: MPEG Video, 1920x1080, 29.97 fps, 16.9 Mbps, 0.272 bit/pixel
Аудио 1: AC3, 48kHz, 6 ch, 384 kbs [русский] [url=http:// СПАМ
Аудио 2: AC3, 48kHz, 6 ch, 384 kbs [английский]

MI

s04e24

General
ID : 1 (0x1)
Complete name : Y:\Video\The.Big.Bang.Theory.S04.rus.eng.1080i.HDTV.[Kuraj-Bambey]\the.big.bang.theory.s04e24.hdtv.1080i.mpeg2.dd_5.1.sub.eng.rus.kuraj_bambey.ts
Format : MPEG-TS
File size : 2.44 GiB
Duration : 21mn 13s
Overall bit rate : 16.4 Mbps
Maximum Overall bit rate : 35.5 Mbps
Video
ID : 4113 (0x1011)
Menu ID : 1 (0x1)
Format : MPEG Video
Format version : Version 2
Format profile : Main@High
Format settings, BVOP : Yes
Format settings, Matrix : Default
Codec ID : 2
Duration : 21mn 13s
Bit rate mode : Variable
Bit rate : 14.8 Mbps
Nominal bit rate : 17.1 Mbps
Width : 1 920 pixels
Height : 1 080 pixels
Display aspect ratio : 16:9
Frame rate : 29.970 fps
Standard : Component
Color space : YUV
Chroma subsampling : 4:2:0
Bit depth : 8 bits
Compression mode : Lossy
Bits/(Pixel*Frame) : 0.239
Stream size : 2.20 GiB (90%)
Audio #1
ID : 4352 (0x1100)
Menu ID : 1 (0x1)
Format : AC-3
Format/Info : Audio Coding 3
Mode extension : CM (complete main)
Codec ID : 129
Duration : 21mn 13s
Bit rate mode : Constant
Bit rate : 384 Kbps
Channel(s) : 6 channels
Channel positions : Front: L C R, Side: L R, LFE
Sampling rate : 48.0 KHz
Bit depth : 16 bits
Compression mode : Lossy
Stream size : 58.3 MiB (2%)
Language : Russian
Audio #2
ID : 4353 (0x1101)
Menu ID : 1 (0x1)
Format : AC-3
Format/Info : Audio Coding 3
Mode extension : CM (complete main)
Codec ID : 129
Duration : 21mn 13s
Bit rate mode : Constant
Bit rate : 384 Kbps
Channel(s) : 6 channels
Channel positions : Front: L C R, Side: L R, LFE
Sampling rate : 48.0 KHz
Bit depth : 16 bits
Compression mode : Lossy
Stream size : 58.3 MiB (2%)
Language : English
Text #1
ID : 4608 (0x1200)
Menu ID : 1 (0x1)
Format : PGS
Codec ID : 144
Duration : 21mn 4s
Delay relative to video : 1s 935ms
Language : Russian
Text #2
ID : 4609 (0x1201)
Menu ID : 1 (0x1)
Format : PGS
Codec ID : 144
Duration : 21mn 4s
Delay relative to video : 1s 935ms
Language : English
Text #3
ID : 4113 (0x1011)608-1
Menu ID : 1 (0x1)
Format : EIA-608
Muxing mode : A/53 / DTVCC Transport
Muxing mode, more info : Muxed in Video #1
Duration : 21mn 13s
Stream size : 0.00 Byte (0%)
Text #4
ID : 4113 (0x1011)1
Menu ID : 1 (0x1)
Format : EIA-708
Muxing mode : A/53 / DTVCC Transport
Muxing mode, more info : Muxed in Video #1
Duration : 21mn 13s
Stream size : 0.00 Byte (0%)

s04e23

General
ID : 1 (0x1)
Complete name : Y:\Video\The.Big.Bang.Theory.S04.rus.eng.1080i.HDTV.[Kuraj-Bambey]\the.big.bang.theory.s04e23.hdtv.1080i.mpeg2.dd_5.1.sub.eng.rus.kuraj_bambey.ts
Format : MPEG-TS
File size : 2.52 GiB
Duration : 19mn 29s
Overall bit rate : 18.5 Mbps
Maximum Overall bit rate : 35.5 Mbps
Video
ID : 4113 (0x1011)
Menu ID : 1 (0x1)
Format : MPEG Video
Format version : Version 2
Format profile : Main@High
Format settings, BVOP : Yes
Format settings, Matrix : Default
Codec ID : 2
Duration : 19mn 29s
Bit rate mode : Variable
Bit rate : 17.1 Mbps
Width : 1 920 pixels
Height : 1 080 pixels
Display aspect ratio : 16:9
Frame rate : 29.970 fps
Standard : Component
Color space : YUV
Chroma subsampling : 4:2:0
Bit depth : 8 bits
Compression mode : Lossy
Bits/(Pixel*Frame) : 0.275
Stream size : 2.29 GiB (91%)
Audio #1
ID : 4352 (0x1100)
Menu ID : 1 (0x1)
Format : AC-3
Format/Info : Audio Coding 3
Mode extension : CM (complete main)
Codec ID : 129
Duration : 19mn 29s
Bit rate mode : Constant
Bit rate : 384 Kbps
Channel(s) : 6 channels
Channel positions : Front: L C R, Side: L R, LFE
Sampling rate : 48.0 KHz
Bit depth : 16 bits
Compression mode : Lossy
Stream size : 53.5 MiB (2%)
Language : Russian
Audio #2
ID : 4353 (0x1101)
Menu ID : 1 (0x1)
Format : AC-3
Format/Info : Audio Coding 3
Mode extension : CM (complete main)
Codec ID : 129
Duration : 19mn 29s
Bit rate mode : Constant
Bit rate : 384 Kbps
Channel(s) : 6 channels
Channel positions : Front: L C R, Side: L R, LFE
Sampling rate : 48.0 KHz
Bit depth : 16 bits
Compression mode : Lossy
Stream size : 53.5 MiB (2%)
Language : English
Text #1
ID : 4608 (0x1200)
Menu ID : 1 (0x1)
Format : PGS
Codec ID : 144
Delay relative to video : 2s 135ms
Language : Russian
Text #2
ID : 4609 (0x1201)
Menu ID : 1 (0x1)
Format : PGS
Codec ID : 144
Delay relative to video : 2s 135ms
Language : English
Text #3
ID : 4113 (0x1011)608-1
Menu ID : 1 (0x1)
Format : EIA-608
Muxing mode : A/53 / DTVCC Transport
Muxing mode, more info : Muxed in Video #1
Duration : 19mn 29s
Stream size : 0.00 Byte (0%)
Text #4
ID : 4113 (0x1011)1
Menu ID : 1 (0x1)
Format : EIA-708
Muxing mode : A/53 / DTVCC Transport
Muxing mode, more info : Muxed in Video #1
Duration : 19mn 29s
Stream size : 0.00 Byte (0%)

s04e22

General
ID : 1 (0x1)
Complete name : Y:\Video\The.Big.Bang.Theory.S04.rus.eng.1080i.HDTV.[Kuraj-Bambey]\the.big.bang.theory.s04e22.hdtv.1080i.mpeg2.dd_5.1.sub.eng.rus.kuraj_bambey.ts
Format : MPEG-TS
File size : 2.53 GiB
Duration : 20mn 52s
Overall bit rate : 17.4 Mbps
Maximum Overall bit rate : 35.5 Mbps
Video
ID : 4113 (0x1011)
Menu ID : 1 (0x1)
Format : MPEG Video
Format version : Version 2
Format profile : Main@High
Format settings, BVOP : Yes
Format settings, Matrix : Default
Codec ID : 2
Duration : 20mn 53s
Bit rate mode : Variable
Bit rate : 15.7 Mbps
Nominal bit rate : 17.1 Mbps
Width : 1 920 pixels
Height : 1 080 pixels
Display aspect ratio : 16:9
Frame rate : 29.970 fps
Standard : Component
Color space : YUV
Chroma subsampling : 4:2:0
Bit depth : 8 bits
Compression mode : Lossy
Bits/(Pixel*Frame) : 0.253
Stream size : 2.30 GiB (91%)
Audio #1
ID : 4352 (0x1100)
Menu ID : 1 (0x1)
Format : AC-3
Format/Info : Audio Coding 3
Mode extension : CM (complete main)
Codec ID : 129
Duration : 20mn 53s
Bit rate mode : Constant
Bit rate : 384 Kbps
Channel(s) : 6 channels
Channel positions : Front: L C R, Side: L R, LFE
Sampling rate : 48.0 KHz
Bit depth : 16 bits
Compression mode : Lossy
Stream size : 57.4 MiB (2%)
Language : Russian
Audio #2
ID : 4353 (0x1101)
Menu ID : 1 (0x1)
Format : AC-3
Format/Info : Audio Coding 3
Mode extension : CM (complete main)
Codec ID : 129
Duration : 20mn 53s
Bit rate mode : Constant
Bit rate : 384 Kbps
Channel(s) : 6 channels
Channel positions : Front: L C R, Side: L R, LFE
Sampling rate : 48.0 KHz
Bit depth : 16 bits
Compression mode : Lossy
Stream size : 57.4 MiB (2%)
Language : English
Text #1
ID : 4608 (0x1200)
Menu ID : 1 (0x1)
Format : PGS
Codec ID : 144
Duration : 20mn 42s
Delay relative to video : 4s 504ms
Language : Russian
Text #2
ID : 4609 (0x1201)
Menu ID : 1 (0x1)
Format : PGS
Codec ID : 144
Duration : 20mn 42s
Delay relative to video : 4s 504ms
Language : English
Text #3
ID : 4113 (0x1011)608-1
Menu ID : 1 (0x1)
Format : EIA-608
Muxing mode : A/53 / DTVCC Transport
Muxing mode, more info : Muxed in Video #1
Duration : 20mn 53s
Stream size : 0.00 Byte (0%)
Text #4
ID : 4113 (0x1011)1
Menu ID : 1 (0x1)
Format : EIA-708
Muxing mode : A/53 / DTVCC Transport
Muxing mode, more info : Muxed in Video #1
Duration : 20mn 53s
Stream size : 0.00 Byte (0%)

s04e21

General
ID : 1 (0x1)
Complete name : Y:\Video\The.Big.Bang.Theory.S04.rus.eng.1080i.HDTV.[Kuraj-Bambey]\the.big.bang.theory.s04e21.hdtv.1080i.mpeg2.dd_5.1.sub.eng.rus.kuraj_bambey.ts
Format : MPEG-TS
File size : 2.40 GiB
Duration : 20mn 28s
Overall bit rate : 16.8 Mbps
Maximum Overall bit rate : 35.5 Mbps
Video
ID : 4113 (0x1011)
Menu ID : 1 (0x1)
Format : MPEG Video
Format version : Version 2
Format profile : Main@High
Format settings, BVOP : Yes
Format settings, Matrix : Default
Codec ID : 2
Duration : 20mn 28s
Bit rate mode : Variable
Bit rate : 15.2 Mbps
Nominal bit rate : 17.1 Mbps
Width : 1 920 pixels
Height : 1 080 pixels
Display aspect ratio : 16:9
Frame rate : 29.970 fps
Standard : Component
Color space : YUV
Chroma subsampling : 4:2:0
Bit depth : 8 bits
Compression mode : Lossy
Bits/(Pixel*Frame) : 0.245
Stream size : 2.17 GiB (90%)
Audio #1
ID : 4352 (0x1100)
Menu ID : 1 (0x1)
Format : AC-3
Format/Info : Audio Coding 3
Mode extension : CM (complete main)
Codec ID : 129
Duration : 20mn 28s
Bit rate mode : Constant
Bit rate : 384 Kbps
Channel(s) : 6 channels
Channel positions : Front: L C R, Side: L R, LFE
Sampling rate : 48.0 KHz
Bit depth : 16 bits
Compression mode : Lossy
Stream size : 56.2 MiB (2%)
Language : Russian
Audio #2
ID : 4353 (0x1101)
Menu ID : 1 (0x1)
Format : AC-3
Format/Info : Audio Coding 3
Mode extension : CM (complete main)
Codec ID : 129
Duration : 20mn 28s
Bit rate mode : Constant
Bit rate : 384 Kbps
Channel(s) : 6 channels
Channel positions : Front: L C R, Side: L R, LFE
Sampling rate : 48.0 KHz
Bit depth : 16 bits
Compression mode : Lossy
Stream size : 56.2 MiB (2%)
Language : English
Text #1
ID : 4608 (0x1200)
Menu ID : 1 (0x1)
Format : PGS
Codec ID : 144
Duration : 20mn 19s
Delay relative to video : 2s 870ms
Language : Russian
Text #2
ID : 4609 (0x1201)
Menu ID : 1 (0x1)
Format : PGS
Codec ID : 144
Duration : 20mn 19s
Delay relative to video : 2s 870ms
Language : English
Text #3
ID : 4113 (0x1011)608-1
Menu ID : 1 (0x1)
Format : EIA-608
Muxing mode : A/53 / DTVCC Transport
Muxing mode, more info : Muxed in Video #1
Duration : 20mn 28s
Stream size : 0.00 Byte (0%)
Text #4
ID : 4113 (0x1011)1
Menu ID : 1 (0x1)
Format : EIA-708
Muxing mode : A/53 / DTVCC Transport
Muxing mode, more info : Muxed in Video #1
Duration : 20mn 28s
Stream size : 0.00 Byte (0%)

s04e20

General
ID : 1 (0x1)
Complete name : Y:\Video\The.Big.Bang.Theory.S04.rus.eng.1080i.HDTV.[Kuraj-Bambey]\the.big.bang.theory.s04e20.hdtv.1080i.mpeg2.dd_5.1.sub.eng.rus.kuraj_bambey.ts
Format : MPEG-TS
File size : 2.73 GiB
Duration : 20mn 33s
Overall bit rate : 19.0 Mbps
Maximum Overall bit rate : 35.5 Mbps
Video
ID : 4113 (0x1011)
Menu ID : 1 (0x1)
Format : MPEG Video
Format version : Version 2
Format profile : Main@High
Format settings, BVOP : Yes
Format settings, Matrix : Default
Codec ID : 2
Duration : 20mn 33s
Bit rate mode : Variable
Bit rate : 17.6 Mbps
Width : 1 920 pixels
Height : 1 080 pixels
Display aspect ratio : 16:9
Frame rate : 29.970 fps
Standard : Component
Color space : YUV
Chroma subsampling : 4:2:0
Bit depth : 8 bits
Scan type : Interlaced
Scan order : Top Field First
Compression mode : Lossy
Bits/(Pixel*Frame) : 0.284
Stream size : 2.48 GiB (91%)
Audio #1
ID : 4352 (0x1100)
Menu ID : 1 (0x1)
Format : AC-3
Format/Info : Audio Coding 3
Mode extension : CM (complete main)
Codec ID : 129
Duration : 20mn 33s
Bit rate mode : Constant
Bit rate : 384 Kbps
Channel(s) : 6 channels
Channel positions : Front: L C R, Side: L R, LFE
Sampling rate : 48.0 KHz
Bit depth : 16 bits
Compression mode : Lossy
Stream size : 56.5 MiB (2%)
Language : Russian
Audio #2
ID : 4353 (0x1101)
Menu ID : 1 (0x1)
Format : AC-3
Format/Info : Audio Coding 3
Mode extension : CM (complete main)
Codec ID : 129
Duration : 20mn 33s
Bit rate mode : Constant
Bit rate : 384 Kbps
Channel(s) : 6 channels
Channel positions : Front: L C R, Side: L R, LFE
Sampling rate : 48.0 KHz
Bit depth : 16 bits
Compression mode : Lossy
Stream size : 56.5 MiB (2%)
Language : English
Text #1
ID : 4608 (0x1200)
Menu ID : 1 (0x1)
Format : PGS
Codec ID : 144
Duration : 20mn 26s
Delay relative to video : 1s 602ms
Language : Russian
Text #2
ID : 4609 (0x1201)
Menu ID : 1 (0x1)
Format : PGS
Codec ID : 144
Duration : 20mn 26s
Delay relative to video : 1s 602ms
Language : English
Text #3
ID : 4113 (0x1011)608-1
Menu ID : 1 (0x1)
Format : EIA-608
Muxing mode : A/53 / DTVCC Transport
Muxing mode, more info : Muxed in Video #1
Duration : 20mn 33s
Stream size : 0.00 Byte (0%)
Text #4
ID : 4113 (0x1011)1
Menu ID : 1 (0x1)
Format : EIA-708
Muxing mode : A/53 / DTVCC Transport
Muxing mode, more info : Muxed in Video #1
Duration : 20mn 33s
Stream size : 0.00 Byte (0%)

s04e19

General
ID : 1 (0x1)
Complete name : Y:\Video\The.Big.Bang.Theory.S04.rus.eng.1080i.HDTV.[Kuraj-Bambey]\the.big.bang.theory.s04e19.hdtv.1080i.mpeg2.dd_5.1.sub.eng.rus.kuraj_bambey.ts
Format : MPEG-TS
File size : 2.80 GiB
Duration : 21mn 5s
Overall bit rate : 19.0 Mbps
Maximum Overall bit rate : 35.5 Mbps
Video
ID : 4113 (0x1011)
Menu ID : 1 (0x1)
Format : MPEG Video
Format version : Version 2
Format profile : Main@High
Format settings, BVOP : Yes
Format settings, Matrix : Default
Codec ID : 2
Duration : 21mn 5s
Bit rate mode : Variable
Bit rate : 17.6 Mbps
Width : 1 920 pixels
Height : 1 080 pixels
Display aspect ratio : 16:9
Frame rate : 29.970 fps
Standard : Component
Color space : YUV
Chroma subsampling : 4:2:0
Bit depth : 8 bits
Scan type : Interlaced
Scan order : Top Field First
Compression mode : Lossy
Bits/(Pixel*Frame) : 0.284
Stream size : 2.55 GiB (91%)
Audio #1
ID : 4352 (0x1100)
Menu ID : 1 (0x1)
Format : AC-3
Format/Info : Audio Coding 3
Mode extension : CM (complete main)
Codec ID : 129
Duration : 21mn 5s
Bit rate mode : Constant
Bit rate : 384 Kbps
Channel(s) : 6 channels
Channel positions : Front: L C R, Side: L R, LFE
Sampling rate : 48.0 KHz
Bit depth : 16 bits
Compression mode : Lossy
Stream size : 57.9 MiB (2%)
Language : Russian
Audio #2
ID : 4353 (0x1101)
Menu ID : 1 (0x1)
Format : AC-3
Format/Info : Audio Coding 3
Mode extension : CM (complete main)
Codec ID : 129
Duration : 21mn 5s
Bit rate mode : Constant
Bit rate : 384 Kbps
Channel(s) : 6 channels
Channel positions : Front: L C R, Side: L R, LFE
Sampling rate : 48.0 KHz
Bit depth : 16 bits
Compression mode : Lossy
Stream size : 57.9 MiB (2%)
Language : English
Text #1
ID : 4608 (0x1200)
Menu ID : 1 (0x1)
Format : PGS
Codec ID : 144
Duration : 20mn 58s
Delay relative to video : 2s 202ms
Language : Russian
Text #2
ID : 4609 (0x1201)
Menu ID : 1 (0x1)
Format : PGS
Codec ID : 144
Duration : 20mn 58s
Delay relative to video : 2s 202ms
Language : English
Text #3
ID : 4113 (0x1011)608-1
Menu ID : 1 (0x1)
Format : EIA-608
Muxing mode : A/53 / DTVCC Transport
Muxing mode, more info : Muxed in Video #1
Duration : 21mn 5s
Stream size : 0.00 Byte (0%)
Text #4
ID : 4113 (0x1011)1
Menu ID : 1 (0x1)
Format : EIA-708
Muxing mode : A/53 / DTVCC Transport
Muxing mode, more info : Muxed in Video #1
Duration : 21mn 5s
Stream size : 0.00 Byte (0%)

s04e18

General
ID : 1 (0x1)
Complete name : Y:\Video\The.Big.Bang.Theory.S04.rus.eng.1080i.HDTV.[Kuraj-Bambey]\the.big.bang.theory.s04e18.hdtv.1080i.mpeg2.dd_5.1.sub.eng.rus.kuraj_bambey.ts
Format : MPEG-TS
File size : 2.39 GiB
Duration : 20mn 40s
Overall bit rate : 16.6 Mbps
Maximum Overall bit rate : 35.5 Mbps
Video
ID : 4113 (0x1011)
Menu ID : 1 (0x1)
Format : MPEG Video
Format version : Version 2
Format profile : Main@High
Format settings, BVOP : Yes
Format settings, Matrix : Default
Codec ID : 2
Duration : 20mn 41s
Bit rate mode : Variable
Bit rate : 15.0 Mbps
Nominal bit rate : 17.1 Mbps
Width : 1 920 pixels
Height : 1 080 pixels
Display aspect ratio : 16:9
Frame rate : 29.970 fps
Standard : Component
Color space : YUV
Chroma subsampling : 4:2:0
Bit depth : 8 bits
Compression mode : Lossy
Bits/(Pixel*Frame) : 0.241
Stream size : 2.16 GiB (90%)
Audio #1
ID : 4352 (0x1100)
Menu ID : 1 (0x1)
Format : AC-3
Format/Info : Audio Coding 3
Mode extension : CM (complete main)
Codec ID : 129
Duration : 20mn 41s
Bit rate mode : Constant
Bit rate : 384 Kbps
Channel(s) : 6 channels
Channel positions : Front: L C R, Side: L R, LFE
Sampling rate : 48.0 KHz
Bit depth : 16 bits
Compression mode : Lossy
Stream size : 56.8 MiB (2%)
Language : Russian
Audio #2
ID : 4353 (0x1101)
Menu ID : 1 (0x1)
Format : AC-3
Format/Info : Audio Coding 3
Mode extension : CM (complete main)
Codec ID : 129
Duration : 20mn 41s
Bit rate mode : Constant
Bit rate : 384 Kbps
Channel(s) : 6 channels
Channel positions : Front: L C R, Side: L R, LFE
Sampling rate : 48.0 KHz
Bit depth : 16 bits
Compression mode : Lossy
Stream size : 56.8 MiB (2%)
Language : English
Text #1
ID : 4608 (0x1200)
Menu ID : 1 (0x1)
Format : PGS
Codec ID : 144
Duration : 20mn 34s
Delay relative to video : 3s 337ms
Language : Russian
Text #2
ID : 4609 (0x1201)
Menu ID : 1 (0x1)
Format : PGS
Codec ID : 144
Duration : 20mn 34s
Delay relative to video : 3s 337ms
Language : English
Text #3
ID : 4113 (0x1011)608-1
Menu ID : 1 (0x1)
Format : EIA-608
Muxing mode : A/53 / DTVCC Transport
Muxing mode, more info : Muxed in Video #1
Duration : 20mn 41s
Stream size : 0.00 Byte (0%)
Text #4
ID : 4113 (0x1011)1
Menu ID : 1 (0x1)
Format : EIA-708
Muxing mode : A/53 / DTVCC Transport
Muxing mode, more info : Muxed in Video #1
Duration : 20mn 41s
Stream size : 0.00 Byte (0%)

s04e17

General
ID : 1 (0x1)
Complete name : Y:\Video\The.Big.Bang.Theory.S04.rus.eng.1080i.HDTV.[Kuraj-Bambey]\the.big.bang.theory.s04e17.hdtv.1080i.mpeg2.dd_5.1.sub.eng.rus.kuraj_bambey.ts
Format : MPEG-TS
File size : 2.53 GiB
Duration : 21mn 7s
Overall bit rate : 17.2 Mbps
Maximum Overall bit rate : 35.5 Mbps
Video
ID : 4113 (0x1011)
Menu ID : 1 (0x1)
Format : MPEG Video
Format version : Version 2
Format profile : Main@High
Format settings, BVOP : Yes
Format settings, Matrix : Default
Codec ID : 2
Duration : 21mn 7s
Bit rate mode : Variable
Bit rate : 15.5 Mbps
Nominal bit rate : 17.1 Mbps
Width : 1 920 pixels
Height : 1 080 pixels
Display aspect ratio : 16:9
Frame rate : 29.970 fps
Standard : Component
Color space : YUV
Chroma subsampling : 4:2:0
Bit depth : 8 bits
Compression mode : Lossy
Bits/(Pixel*Frame) : 0.250
Stream size : 2.29 GiB (91%)
Audio #1
ID : 4352 (0x1100)
Menu ID : 1 (0x1)
Format : AC-3
Format/Info : Audio Coding 3
Mode extension : CM (complete main)
Codec ID : 129
Duration : 21mn 7s
Bit rate mode : Constant
Bit rate : 384 Kbps
Channel(s) : 6 channels
Channel positions : Front: L C R, Side: L R, LFE
Sampling rate : 48.0 KHz
Bit depth : 16 bits
Compression mode : Lossy
Stream size : 58.0 MiB (2%)
Language : Russian
Audio #2
ID : 4353 (0x1101)
Menu ID : 1 (0x1)
Format : AC-3
Format/Info : Audio Coding 3
Mode extension : CM (complete main)
Codec ID : 129
Duration : 21mn 7s
Bit rate mode : Constant
Bit rate : 384 Kbps
Channel(s) : 6 channels
Channel positions : Front: L C R, Side: L R, LFE
Sampling rate : 48.0 KHz
Bit depth : 16 bits
Compression mode : Lossy
Stream size : 58.0 MiB (2%)
Language : English
Text #1
ID : 4608 (0x1200)
Menu ID : 1 (0x1)
Format : PGS
Codec ID : 144
Duration : 20mn 58s
Delay relative to video : 1s 702ms
Language : Russian
Text #2
ID : 4609 (0x1201)
Menu ID : 1 (0x1)
Format : PGS
Codec ID : 144
Duration : 20mn 58s
Delay relative to video : 1s 702ms
Language : English
Text #3
ID : 4113 (0x1011)608-1
Menu ID : 1 (0x1)
Format : EIA-608
Muxing mode : A/53 / DTVCC Transport
Muxing mode, more info : Muxed in Video #1
Duration : 21mn 7s
Stream size : 0.00 Byte (0%)
Text #4
ID : 4113 (0x1011)1
Menu ID : 1 (0x1)
Format : EIA-708
Muxing mode : A/53 / DTVCC Transport
Muxing mode, more info : Muxed in Video #1
Duration : 21mn 7s
Stream size : 0.00 Byte (0%)

s04e16

General
ID : 1 (0x1)
Complete name : Y:\Video\The.Big.Bang.Theory.S04.rus.eng.1080i.HDTV.[Kuraj-Bambey]\the.big.bang.theory.s04e16.hdtv.1080i.mpeg2.dd_5.1.sub.eng.rus.kuraj_bambey.ts
Format : MPEG-TS
File size : 2.69 GiB
Duration : 13h 15mn
Overall bit rate : 482 Kbps
Maximum Overall bit rate : 35.5 Mbps
Video
ID : 4113 (0x1011)
Menu ID : 1 (0x1)
Format : MPEG Video
Format version : Version 2
Format profile : Main@High
Format settings, BVOP : Yes
Format settings, Matrix : Default
Codec ID : 2
Duration : 20mn 16s
Bit rate mode : Variable
Nominal bit rate : 17.6 Mbps
Width : 1 920 pixels
Height : 1 080 pixels
Display aspect ratio : 16:9
Frame rate : 29.970 fps
Standard : Component
Color space : YUV
Chroma subsampling : 4:2:0
Bit depth : 8 bits
Scan type : Interlaced
Scan order : Top Field First
Compression mode : Lossy
Bits/(Pixel*Frame) : 0.284
Audio #1
ID : 4352 (0x1100)
Menu ID : 1 (0x1)
Format : AC-3
Format/Info : Audio Coding 3
Mode extension : CM (complete main)
Codec ID : 129
Duration : 20mn 16s
Bit rate mode : Constant
Bit rate : 384 Kbps
Channel(s) : 6 channels
Channel positions : Front: L C R, Side: L R, LFE
Sampling rate : 48.0 KHz
Bit depth : 16 bits
Compression mode : Lossy
Stream size : 55.7 MiB (2%)
Language : Russian
Audio #2
ID : 4353 (0x1101)
Menu ID : 1 (0x1)
Format : AC-3
Format/Info : Audio Coding 3
Mode extension : CM (complete main)
Codec ID : 129
Duration : 20mn 16s
Bit rate mode : Constant
Bit rate : 384 Kbps
Channel(s) : 6 channels
Channel positions : Front: L C R, Side: L R, LFE
Sampling rate : 48.0 KHz
Bit depth : 16 bits
Compression mode : Lossy
Stream size : 55.7 MiB (2%)
Language : English
Text #1
ID : 4608 (0x1200)
Menu ID : 1 (0x1)
Format : PGS
Codec ID : 144
Language : Russian
Text #2
ID : 4609 (0x1201)
Menu ID : 1 (0x1)
Format : PGS
Codec ID : 144
Language : English
Text #3
ID : 4113 (0x1011)608-1
Menu ID : 1 (0x1)
Format : EIA-608
Muxing mode : A/53 / DTVCC Transport
Muxing mode, more info : Muxed in Video #1
Duration : 20mn 16s
Stream size : 0.00 Byte (0%)
Text #4
ID : 4113 (0x1011)1
Menu ID : 1 (0x1)
Format : EIA-708
Muxing mode : A/53 / DTVCC Transport
Muxing mode, more info : Muxed in Video #1
Duration : 20mn 16s
Stream size : 0.00 Byte (0%)

s04e15

General
ID : 1 (0x1)
Complete name : Y:\Video\The.Big.Bang.Theory.S04.rus.eng.1080i.HDTV.[Kuraj-Bambey]\the.big.bang.theory.s04e15.hdtv.1080i.mpeg2.dd_5.1.sub.eng.rus.kuraj_bambey.ts
Format : MPEG-TS
File size : 2.61 GiB
Duration : 19mn 40s
Overall bit rate : 19.0 Mbps
Maximum Overall bit rate : 35.5 Mbps
Video
ID : 4113 (0x1011)
Menu ID : 1 (0x1)
Format : MPEG Video
Format version : Version 2
Format profile : Main@High
Format settings, BVOP : Yes
Format settings, Matrix : Default
Codec ID : 2
Duration : 19mn 40s
Bit rate mode : Variable
Bit rate : 17.6 Mbps
Width : 1 920 pixels
Height : 1 080 pixels
Display aspect ratio : 16:9
Frame rate : 29.970 fps
Standard : Component
Color space : YUV
Chroma subsampling : 4:2:0
Bit depth : 8 bits
Scan type : Interlaced
Scan order : Top Field First
Compression mode : Lossy
Bits/(Pixel*Frame) : 0.284
Stream size : 2.38 GiB (91%)
Audio #1
ID : 4352 (0x1100)
Menu ID : 1 (0x1)
Format : AC-3
Format/Info : Audio Coding 3
Mode extension : CM (complete main)
Codec ID : 129
Duration : 19mn 40s
Bit rate mode : Constant
Bit rate : 384 Kbps
Channel(s) : 6 channels
Channel positions : Front: L C R, Side: L R, LFE
Sampling rate : 48.0 KHz
Bit depth : 16 bits
Compression mode : Lossy
Stream size : 54.0 MiB (2%)
Language : Russian
Audio #2
ID : 4353 (0x1101)
Menu ID : 1 (0x1)
Format : AC-3
Format/Info : Audio Coding 3
Mode extension : CM (complete main)
Codec ID : 129
Duration : 19mn 40s
Bit rate mode : Constant
Bit rate : 384 Kbps
Channel(s) : 6 channels
Channel positions : Front: L C R, Side: L R, LFE
Sampling rate : 48.0 KHz
Bit depth : 16 bits
Compression mode : Lossy
Stream size : 54.0 MiB (2%)
Language : English
Text #1
ID : 4608 (0x1200)
Menu ID : 1 (0x1)
Format : PGS
Codec ID : 144
Duration : 19mn 37s
Delay relative to video : 1s 935ms
Language : Russian
Text #2
ID : 4609 (0x1201)
Menu ID : 1 (0x1)
Format : PGS
Codec ID : 144
Duration : 19mn 37s
Delay relative to video : 1s 935ms
Language : English
Text #3
ID : 4113 (0x1011)608-1
Menu ID : 1 (0x1)
Format : EIA-608
Muxing mode : A/53 / DTVCC Transport
Muxing mode, more info : Muxed in Video #1
Duration : 19mn 40s
Stream size : 0.00 Byte (0%)
Text #4
ID : 4113 (0x1011)1
Menu ID : 1 (0x1)
Format : EIA-708
Muxing mode : A/53 / DTVCC Transport
Muxing mode, more info : Muxed in Video #1
Duration : 19mn 40s
Stream size : 0.00 Byte (0%)

s04e14

General
ID : 1 (0x1)
Complete name : Y:\Video\The.Big.Bang.Theory.S04.rus.eng.1080i.HDTV.[Kuraj-Bambey]\the.big.bang.theory.s04e14.hdtv.1080i.mpeg2.dd_5.1.sub.eng.rus.kuraj_bambey.ts
Format : MPEG-TS
File size : 2.27 GiB
Duration : 21mn 9s
Overall bit rate : 15.3 Mbps
Maximum Overall bit rate : 35.5 Mbps
Video
ID : 4113 (0x1011)
Menu ID : 1 (0x1)
Format : MPEG Video
Format version : Version 2
Format profile : Main@High
Format settings, BVOP : Yes
Format settings, Matrix : Default
Codec ID : 2
Duration : 21mn 9s
Bit rate mode : Variable
Bit rate : 13.8 Mbps
Nominal bit rate : 17.1 Mbps
Width : 1 920 pixels
Height : 1 080 pixels
Display aspect ratio : 16:9
Frame rate : 29.970 fps
Standard : Component
Color space : YUV
Chroma subsampling : 4:2:0
Bit depth : 8 bits
Compression mode : Lossy
Bits/(Pixel*Frame) : 0.222
Stream size : 2.04 GiB (90%)
Audio #1
ID : 4352 (0x1100)
Menu ID : 1 (0x1)
Format : AC-3
Format/Info : Audio Coding 3
Mode extension : CM (complete main)
Codec ID : 129
Duration : 21mn 9s
Bit rate mode : Constant
Bit rate : 384 Kbps
Channel(s) : 6 channels
Channel positions : Front: L C R, Side: L R, LFE
Sampling rate : 48.0 KHz
Bit depth : 16 bits
Compression mode : Lossy
Stream size : 58.1 MiB (3%)
Language : Russian
Audio #2
ID : 4353 (0x1101)
Menu ID : 1 (0x1)
Format : AC-3
Format/Info : Audio Coding 3
Mode extension : CM (complete main)
Codec ID : 129
Duration : 21mn 9s
Bit rate mode : Constant
Bit rate : 384 Kbps
Channel(s) : 6 channels
Channel positions : Front: L C R, Side: L R, LFE
Sampling rate : 48.0 KHz
Bit depth : 16 bits
Compression mode : Lossy
Stream size : 58.1 MiB (3%)
Language : English
Text #1
ID : 4608 (0x1200)
Menu ID : 1 (0x1)
Format : PGS
Codec ID : 144
Duration : 20mn 59s
Delay relative to video : 1s 335ms
Language : Russian
Text #2
ID : 4609 (0x1201)
Menu ID : 1 (0x1)
Format : PGS
Codec ID : 144
Duration : 20mn 59s
Delay relative to video : 1s 335ms
Language : English
Text #3
ID : 4113 (0x1011)608-1
Menu ID : 1 (0x1)
Format : EIA-608
Muxing mode : A/53 / DTVCC Transport
Muxing mode, more info : Muxed in Video #1
Duration : 21mn 9s
Stream size : 0.00 Byte (0%)
Text #4
ID : 4113 (0x1011)1
Menu ID : 1 (0x1)
Format : EIA-708
Muxing mode : A/53 / DTVCC Transport
Muxing mode, more info : Muxed in Video #1
Duration : 21mn 9s
Stream size : 0.00 Byte (0%)

s04e13

General
ID : 1 (0x1)
Complete name : Y:\Video\The.Big.Bang.Theory.S04.rus.eng.1080i.HDTV.[Kuraj-Bambey]\the.big.bang.theory.s04e13.hdtv.1080i.mpeg2.dd_5.1.sub.eng.rus.kuraj_bambey.ts
Format : MPEG-TS
File size : 2.81 GiB
Duration : 21mn 7s
Overall bit rate : 19.0 Mbps
Maximum Overall bit rate : 35.5 Mbps
Video
ID : 4113 (0x1011)
Menu ID : 1 (0x1)
Format : MPEG Video
Format version : Version 2
Format profile : Main@High
Format settings, BVOP : Yes
Format settings, Matrix : Default
Codec ID : 2
Duration : 21mn 7s
Bit rate mode : Variable
Bit rate : 17.6 Mbps
Width : 1 920 pixels
Height : 1 080 pixels
Display aspect ratio : 16:9
Frame rate : 29.970 fps
Standard : Component
Color space : YUV
Chroma subsampling : 4:2:0
Bit depth : 8 bits
Scan type : Interlaced
Scan order : Top Field First
Compression mode : Lossy
Bits/(Pixel*Frame) : 0.284
Stream size : 2.55 GiB (91%)
Audio #1
ID : 4352 (0x1100)
Menu ID : 1 (0x1)
Format : AC-3
Format/Info : Audio Coding 3
Mode extension : CM (complete main)
Codec ID : 129
Duration : 21mn 7s
Bit rate mode : Constant
Bit rate : 384 Kbps
Channel(s) : 6 channels
Channel positions : Front: L C R, Side: L R, LFE
Sampling rate : 48.0 KHz
Bit depth : 16 bits
Compression mode : Lossy
Stream size : 58.0 MiB (2%)
Language : Russian
Audio #2
ID : 4353 (0x1101)
Menu ID : 1 (0x1)
Format : AC-3
Format/Info : Audio Coding 3
Mode extension : CM (complete main)
Codec ID : 129
Duration : 21mn 7s
Bit rate mode : Constant
Bit rate : 384 Kbps
Channel(s) : 6 channels
Channel positions : Front: L C R, Side: L R, LFE
Sampling rate : 48.0 KHz
Bit depth : 16 bits
Compression mode : Lossy
Stream size : 58.0 MiB (2%)
Language : English
Text #1
ID : 4608 (0x1200)
Menu ID : 1 (0x1)
Format : PGS
Codec ID : 144
Delay relative to video : 1s 735ms
Language : Russian
Text #2
ID : 4609 (0x1201)
Menu ID : 1 (0x1)
Format : PGS
Codec ID : 144
Delay relative to video : 1s 735ms
Language : English
Text #3
ID : 4113 (0x1011)608-1
Menu ID : 1 (0x1)
Format : EIA-608
Muxing mode : A/53 / DTVCC Transport
Muxing mode, more info : Muxed in Video #1
Duration : 21mn 7s
Stream size : 0.00 Byte (0%)
Text #4
ID : 4113 (0x1011)1
Menu ID : 1 (0x1)
Format : EIA-708
Muxing mode : A/53 / DTVCC Transport
Muxing mode, more info : Muxed in Video #1
Duration : 21mn 7s
Stream size : 0.00 Byte (0%)

s04e12

General
ID : 1 (0x1)
Complete name : Y:\Video\The.Big.Bang.Theory.S04.rus.eng.1080i.HDTV.[Kuraj-Bambey]\the.big.bang.theory.s04e12.hdtv.1080i.mpeg2.dd_5.1.sub.eng.rus.kuraj_bambey.ts
Format : MPEG-TS
File size : 2.81 GiB
Duration : 21mn 12s
Overall bit rate : 18.9 Mbps
Maximum Overall bit rate : 35.5 Mbps
Video
ID : 4113 (0x1011)
Menu ID : 1 (0x1)
Format : MPEG Video
Format version : Version 2
Format profile : Main@High
Format settings, BVOP : Yes
Format settings, Matrix : Default
Codec ID : 2
Duration : 21mn 12s
Bit rate mode : Variable
Bit rate : 17.6 Mbps
Width : 1 920 pixels
Height : 1 080 pixels
Display aspect ratio : 16:9
Frame rate : 29.970 fps
Standard : Component
Color space : YUV
Chroma subsampling : 4:2:0
Bit depth : 8 bits
Scan type : Interlaced
Scan order : Top Field First
Compression mode : Lossy
Bits/(Pixel*Frame) : 0.284
Stream size : 2.55 GiB (91%)
Audio #1
ID : 4352 (0x1100)
Menu ID : 1 (0x1)
Format : AC-3
Format/Info : Audio Coding 3
Mode extension : CM (complete main)
Codec ID : 129
Duration : 21mn 12s
Bit rate mode : Constant
Bit rate : 384 Kbps
Channel(s) : 6 channels
Channel positions : Front: L C R, Side: L R, LFE
Sampling rate : 48.0 KHz
Bit depth : 16 bits
Compression mode : Lossy
Stream size : 58.3 MiB (2%)
Language : Russian
Audio #2
ID : 4353 (0x1101)
Menu ID : 1 (0x1)
Format : AC-3
Format/Info : Audio Coding 3
Mode extension : CM (complete main)
Codec ID : 129
Duration : 21mn 12s
Bit rate mode : Constant
Bit rate : 384 Kbps
Channel(s) : 6 channels
Channel positions : Front: L C R, Side: L R, LFE
Sampling rate : 48.0 KHz
Bit depth : 16 bits
Compression mode : Lossy
Stream size : 58.3 MiB (2%)
Language : English
Text #1
ID : 4608 (0x1200)
Menu ID : 1 (0x1)
Format : PGS
Codec ID : 144
Delay relative to video : 2s 135ms
Language : Russian
Text #2
ID : 4609 (0x1201)
Menu ID : 1 (0x1)
Format : PGS
Codec ID : 144
Delay relative to video : 2s 135ms
Language : English
Text #3
ID : 4113 (0x1011)608-1
Menu ID : 1 (0x1)
Format : EIA-608
Muxing mode : A/53 / DTVCC Transport
Muxing mode, more info : Muxed in Video #1
Duration : 21mn 12s
Stream size : 0.00 Byte (0%)
Text #4
ID : 4113 (0x1011)1
Menu ID : 1 (0x1)
Format : EIA-708
Muxing mode : A/53 / DTVCC Transport
Muxing mode, more info : Muxed in Video #1
Duration : 21mn 12s
Stream size : 0.00 Byte (0%)

s04e11

General
ID : 1
Complete name : Y:\Video\The.Big.Bang.Theory.S04.rus.eng.1080i.HDTV.[Kuraj-Bambey]\the.big.bang.theory.s04e11.hdtv.1080i.mpeg2.dd_5.1.sub.eng.rus.kuraj_bambey.ts
Format : MPEG-TS
File size : 2.38 GiB
Duration : 20mn 3s
Overall bit rate : 17.0 Mbps
Maximum Overall bit rate : 35.5 Mbps
Video
ID : 4113 (0x1011)
Menu ID : 1 (0x1)
Format : MPEG Video
Format version : Version 2
Format profile : Main@High
Format settings, BVOP : Yes
Format settings, Matrix : Default
Duration : 20mn 3s
Bit rate mode : Variable
Bit rate : 15.0 Mbps
Nominal bit rate : 17.1 Mbps
Width : 1 920 pixels
Height : 1 080 pixels
Display aspect ratio : 16:9
Frame rate : 29.970 fps
Standard : Component
Resolution : 8 bits
Colorimetry : 4:2:0
Bits/(Pixel*Frame) : 0.242
Stream size : 2.11 GiB (89%)
Audio #1
ID : 4352 (0x1100)
Menu ID : 1 (0x1)
Format : AC-3
Format/Info : Audio Coding 3
Duration : 20mn 3s
Bit rate mode : Constant
Bit rate : 384 Kbps
Channel(s) : 6 channels
Channel positions : Front: L C R, Surround: L R, LFE
Sampling rate : 48.0 KHz
Stream size : 55.1 MiB (2%)
Language : Russian
Audio #2
ID : 4353 (0x1101)
Menu ID : 1 (0x1)
Format : AC-3
Format/Info : Audio Coding 3
Duration : 20mn 3s
Bit rate mode : Constant
Bit rate : 384 Kbps
Channel(s) : 6 channels
Channel positions : Front: L C R, Surround: L R, LFE
Sampling rate : 48.0 KHz
Stream size : 55.1 MiB (2%)
Language : English
Text #1
ID : 4608 (0x1200)
Menu ID : 1 (0x1)
Format : PGS
Duration : 19mn 52s
Video delay : 6s 673ms
Language : Russian
Text #2
ID : 4609 (0x1201)
Menu ID : 1 (0x1)
Format : PGS
Video delay : 6s 673ms
Language : English
Text #3
ID : 4113 (0x1011)608-1
Menu ID : 1 (0x1)
Format : EIA-608
Muxing mode : MPEG Video / EIA-708
Muxing mode, more info : Muxed in Video #1
Duration : 20mn 3s
Stream size : 0.00 Byte (0%)

s04e10

General
ID : 1
Complete name : Y:\Video\The.Big.Bang.Theory.S04.rus.eng.1080i.HDTV.[Kuraj-Bambey]\the.big.bang.theory.s04e10.hdtv.1080i.mpeg2.dd_5.1.sub.eng.rus.kuraj_bambey.ts
Format : MPEG-TS
File size : 2.62 GiB
Duration : 19mn 43s
Overall bit rate : 19.0 Mbps
Maximum Overall bit rate : 35.5 Mbps
Video
ID : 4113 (0x1011)
Menu ID : 1 (0x1)
Format : MPEG Video
Format version : Version 2
Format profile : Main@High
Format settings, BVOP : Yes
Format settings, Matrix : Default
Duration : 19mn 43s
Bit rate mode : Variable
Bit rate : 16.9 Mbps
Nominal bit rate : 17.6 Mbps
Width : 1 920 pixels
Height : 1 080 pixels
Display aspect ratio : 16:9
Frame rate : 29.970 fps
Standard : Component
Resolution : 8 bits
Colorimetry : 4:2:0
Scan type : Interlaced
Scan order : Top Field First
Bits/(Pixel*Frame) : 0.272
Stream size : 2.33 GiB (89%)
Audio #1
ID : 4352 (0x1100)
Menu ID : 1 (0x1)
Format : AC-3
Format/Info : Audio Coding 3
Duration : 19mn 43s
Bit rate mode : Constant
Bit rate : 384 Kbps
Channel(s) : 6 channels
Channel positions : Front: L C R, Surround: L R, LFE
Sampling rate : 48.0 KHz
Stream size : 54.2 MiB (2%)
Language : Russian
Audio #2
ID : 4353 (0x1101)
Menu ID : 1 (0x1)
Format : AC-3
Format/Info : Audio Coding 3
Duration : 19mn 43s
Bit rate mode : Constant
Bit rate : 384 Kbps
Channel(s) : 6 channels
Channel positions : Front: L C R, Surround: L R, LFE
Sampling rate : 48.0 KHz
Stream size : 54.2 MiB (2%)
Language : English
Text #1
ID : 4608 (0x1200)
Menu ID : 1 (0x1)
Format : PGS
Language : Russian
Text #2
ID : 4609 (0x1201)
Menu ID : 1 (0x1)
Format : PGS
Language : English
Text #3
ID : 4113 (0x1011)608-1
Menu ID : 1 (0x1)
Format : EIA-608
Muxing mode : MPEG Video / EIA-708
Muxing mode, more info : Muxed in Video #1
Duration : 19mn 43s
Stream size : 0.00 Byte (0%)
Text #4
ID : 4113 (0x1011)608-0
Menu ID : 1 (0x1)
Format : EIA-608
Muxing mode : MPEG Video / EIA-708
Muxing mode, more info : Muxed in Video #1
Duration : 19mn 43s
Stream size : 0.00 Byte (0%)
Text #5
ID : 4113 (0x1011)1
Menu ID : 1 (0x1)
Format : EIA-708
Muxing mode : MPEG Video / EIA-708
Muxing mode, more info : Muxed in Video #1
Duration : 19mn 43s
Stream size : 0.00 Byte (0%)

s04e09

General
ID : 1
Complete name : Y:\Video\The.Big.Bang.Theory.S04.rus.eng.1080i.HDTV.[Kuraj-Bambey]\the.big.bang.theory.s04e09.hdtv.1080i.mpeg2.dd_5.1.sub.eng.rus.kuraj_bambey.ts
Format : MPEG-TS
File size : 2.76 GiB
Duration : 20mn 44s
Overall bit rate : 19.0 Mbps
Maximum Overall bit rate : 35.5 Mbps
Video
ID : 4113 (0x1011)
Menu ID : 1 (0x1)
Format : MPEG Video
Format version : Version 2
Format profile : Main@High
Format settings, BVOP : Yes
Format settings, Matrix : Default
Duration : 20mn 44s
Bit rate mode : Variable
Bit rate : 16.9 Mbps
Nominal bit rate : 17.6 Mbps
Width : 1 920 pixels
Height : 1 080 pixels
Display aspect ratio : 16:9
Frame rate : 29.970 fps
Standard : Component
Resolution : 8 bits
Colorimetry : 4:2:0
Scan type : Interlaced
Scan order : Top Field First
Bits/(Pixel*Frame) : 0.272
Stream size : 2.45 GiB (89%)
Audio #1
ID : 4352 (0x1100)
Menu ID : 1 (0x1)
Format : AC-3
Format/Info : Audio Coding 3
Duration : 20mn 44s
Bit rate mode : Constant
Bit rate : 384 Kbps
Channel(s) : 6 channels
Channel positions : Front: L C R, Surround: L R, LFE
Sampling rate : 48.0 KHz
Stream size : 57.0 MiB (2%)
Language : English
Audio #2
ID : 4353 (0x1101)
Menu ID : 1 (0x1)
Format : AC-3
Format/Info : Audio Coding 3
Duration : 20mn 44s
Bit rate mode : Constant
Bit rate : 384 Kbps
Channel(s) : 6 channels
Channel positions : Front: L C R, Surround: L R, LFE
Sampling rate : 48.0 KHz
Stream size : 57.0 MiB (2%)
Language : English
Text #1
ID : 4608 (0x1200)
Menu ID : 1 (0x1)
Format : PGS
Video delay : 1s 835ms
Language : Russian
Text #2
ID : 4609 (0x1201)
Menu ID : 1 (0x1)
Format : PGS
Video delay : 1s 835ms
Language : English
Text #3
ID : 4113 (0x1011)608-1
Menu ID : 1 (0x1)
Format : EIA-608
Muxing mode : MPEG Video / EIA-708
Muxing mode, more info : Muxed in Video #1
Duration : 20mn 44s
Stream size : 0.00 Byte (0%)
Text #4
ID : 4113 (0x1011)608-0
Menu ID : 1 (0x1)
Format : EIA-608
Muxing mode : MPEG Video / EIA-708
Muxing mode, more info : Muxed in Video #1
Duration : 20mn 44s
Stream size : 0.00 Byte (0%)
Text #5
ID : 4113 (0x1011)1
Menu ID : 1 (0x1)
Format : EIA-708
Muxing mode : MPEG Video / EIA-708
Muxing mode, more info : Muxed in Video #1
Duration : 20mn 44s
Stream size : 0.00 Byte (0%)

s04e08

General
ID : 1
Complete name : Y:\Video\The.Big.Bang.Theory.S04.rus.eng.1080i.HDTV.[Kuraj-Bambey]\the.big.bang.theory.s04e08.hdtv.1080i.mpeg2.dd_5.1.sub.eng.rus.kuraj_bambey.ts
Format : MPEG-TS
File size : 2.51 GiB
Duration : 18mn 54s
Overall bit rate : 19.0 Mbps
Maximum Overall bit rate : 35.5 Mbps
Video
ID : 4113 (0x1011)
Menu ID : 1 (0x1)
Format : MPEG Video
Format version : Version 2
Format profile : Main@High
Format settings, BVOP : Yes
Format settings, Matrix : Default
Duration : 18mn 54s
Bit rate mode : Variable
Bit rate : 16.9 Mbps
Nominal bit rate : 17.6 Mbps
Width : 1 920 pixels
Height : 1 080 pixels
Display aspect ratio : 16:9
Frame rate : 29.970 fps
Standard : Component
Resolution : 8 bits
Colorimetry : 4:2:0
Scan type : Interlaced
Scan order : Top Field First
Bits/(Pixel*Frame) : 0.272
Stream size : 2.24 GiB (89%)
Audio #1
ID : 4352 (0x1100)
Menu ID : 1 (0x1)
Format : AC-3
Format/Info : Audio Coding 3
Duration : 18mn 54s
Bit rate mode : Constant
Bit rate : 384 Kbps
Channel(s) : 6 channels
Channel positions : Front: L C R, Surround: L R, LFE
Sampling rate : 48.0 KHz
Stream size : 51.9 MiB (2%)
Language : Russian
Audio #2
ID : 4353 (0x1101)
Menu ID : 1 (0x1)
Format : AC-3
Format/Info : Audio Coding 3
Duration : 18mn 54s
Bit rate mode : Constant
Bit rate : 384 Kbps
Channel(s) : 6 channels
Channel positions : Front: L C R, Surround: L R, LFE
Sampling rate : 48.0 KHz
Stream size : 51.9 MiB (2%)
Language : English
Text #1
ID : 4608 (0x1200)
Menu ID : 1 (0x1)
Format : PGS
Language : Russian
Text #2
ID : 4609 (0x1201)
Menu ID : 1 (0x1)
Format : PGS
Language : English
Text #3
ID : 4113 (0x1011)608-1
Menu ID : 1 (0x1)
Format : EIA-608
Muxing mode : MPEG Video / EIA-708
Muxing mode, more info : Muxed in Video #1
Duration : 18mn 54s
Stream size : 0.00 Byte (0%)
Text #4
ID : 4113 (0x1011)608-0
Menu ID : 1 (0x1)
Format : EIA-608
Muxing mode : MPEG Video / EIA-708
Muxing mode, more info : Muxed in Video #1
Duration : 18mn 54s
Stream size : 0.00 Byte (0%)
Text #5
ID : 4113 (0x1011)1
Menu ID : 1 (0x1)
Format : EIA-708
Muxing mode : MPEG Video / EIA-708
Muxing mode, more info : Muxed in Video #1
Duration : 18mn 54s
Stream size : 0.00 Byte (0%)

s04e07

General
ID : 1
Complete name : Y:\Video\The.Big.Bang.Theory.S04.rus.eng.1080i.HDTV.[Kuraj-Bambey]\the.big.bang.theory.s04e07.hdtv.1080i.mpeg2.dd_5.1.sub.eng.rus.kuraj_bambey.ts
Format : MPEG-TS
File size : 2.82 GiB
Duration : 21mn 14s
Overall bit rate : 19.0 Mbps
Maximum Overall bit rate : 35.5 Mbps
Video
ID : 4113 (0x1011)
Menu ID : 1 (0x1)
Format : MPEG Video
Format version : Version 2
Format profile : Main@High
Format settings, BVOP : Yes
Format settings, Matrix : Default
Duration : 21mn 14s
Bit rate mode : Variable
Bit rate : 16.9 Mbps
Nominal bit rate : 17.6 Mbps
Width : 1 920 pixels
Height : 1 080 pixels
Display aspect ratio : 16:9
Frame rate : 29.970 fps
Standard : Component
Resolution : 8 bits
Colorimetry : 4:2:0
Scan type : Interlaced
Scan order : Top Field First
Bits/(Pixel*Frame) : 0.272
Stream size : 2.51 GiB (89%)
Audio #1
ID : 4352 (0x1100)
Menu ID : 1 (0x1)
Format : AC-3
Format/Info : Audio Coding 3
Duration : 21mn 14s
Bit rate mode : Constant
Bit rate : 384 Kbps
Channel(s) : 6 channels
Channel positions : Front: L C R, Surround: L R, LFE
Sampling rate : 48.0 KHz
Stream size : 58.3 MiB (2%)
Language : Russian
Audio #2
ID : 4353 (0x1101)
Menu ID : 1 (0x1)
Format : AC-3
Format/Info : Audio Coding 3
Duration : 21mn 14s
Bit rate mode : Constant
Bit rate : 384 Kbps
Channel(s) : 6 channels
Channel positions : Front: L C R, Surround: L R, LFE
Sampling rate : 48.0 KHz
Stream size : 58.3 MiB (2%)
Language : English
Text #1
ID : 4608 (0x1200)
Menu ID : 1 (0x1)
Format : PGS
Video delay : 1s 602ms
Language : Russian
Text #2
ID : 4609 (0x1201)
Menu ID : 1 (0x1)
Format : PGS
Video delay : 1s 602ms
Language : English
Text #3
ID : 4113 (0x1011)608-1
Menu ID : 1 (0x1)
Format : EIA-608
Muxing mode : MPEG Video / EIA-708
Muxing mode, more info : Muxed in Video #1
Duration : 21mn 14s
Stream size : 0.00 Byte (0%)
Text #4
ID : 4113 (0x1011)608-0
Menu ID : 1 (0x1)
Format : EIA-608
Muxing mode : MPEG Video / EIA-708
Muxing mode, more info : Muxed in Video #1
Duration : 21mn 14s
Stream size : 0.00 Byte (0%)
Text #5
ID : 4113 (0x1011)1
Menu ID : 1 (0x1)
Format : EIA-708
Muxing mode : MPEG Video / EIA-708
Muxing mode, more info : Muxed in Video #1
Duration : 21mn 14s
Stream size : 0.00 Byte (0%)

s04e06

General
ID : 1
Complete name : Y:\Video\The.Big.Bang.Theory.S04.rus.eng.1080i.HDTV.[Kuraj-Bambey]\the.big.bang.theory.s04e06.hdtv.1080i.mpeg2.dd_5.1.sub.eng.rus.kuraj_bambey.ts
Format : MPEG-TS
File size : 2.83 GiB
Duration : 21mn 16s
Overall bit rate : 19.0 Mbps
Maximum Overall bit rate : 35.5 Mbps
Video
ID : 4113 (0x1011)
Menu ID : 1 (0x1)
Format : MPEG Video
Format version : Version 2
Format profile : Main@High
Format settings, BVOP : Yes
Format settings, Matrix : Default
Duration : 21mn 16s
Bit rate mode : Variable
Bit rate : 16.9 Mbps
Nominal bit rate : 17.6 Mbps
Width : 1 920 pixels
Height : 1 080 pixels
Display aspect ratio : 16:9
Frame rate : 29.970 fps
Standard : Component
Resolution : 8 bits
Colorimetry : 4:2:0
Scan type : Interlaced
Scan order : Top Field First
Bits/(Pixel*Frame) : 0.272
Stream size : 2.52 GiB (89%)
Audio #1
ID : 4352 (0x1100)
Menu ID : 1 (0x1)
Format : AC-3
Format/Info : Audio Coding 3
Duration : 21mn 16s
Bit rate mode : Constant
Bit rate : 384 Kbps
Channel(s) : 6 channels
Channel positions : Front: L C R, Surround: L R, LFE
Sampling rate : 48.0 KHz
Stream size : 58.4 MiB (2%)
Language : Russian
Audio #2
ID : 4353 (0x1101)
Menu ID : 1 (0x1)
Format : AC-3
Format/Info : Audio Coding 3
Duration : 21mn 16s
Bit rate mode : Constant
Bit rate : 384 Kbps
Channel(s) : 6 channels
Channel positions : Front: L C R, Surround: L R, LFE
Sampling rate : 48.0 KHz
Stream size : 58.4 MiB (2%)
Language : English
Text #1
ID : 4608 (0x1200)
Menu ID : 1 (0x1)
Format : PGS
Duration : 21mn 7s
Video delay : 5s 706ms
Language : Russian
Text #2
ID : 4609 (0x1201)
Menu ID : 1 (0x1)
Format : PGS
Video delay : 5s 706ms
Language : English
Text #3
ID : 4113 (0x1011)608-1
Menu ID : 1 (0x1)
Format : EIA-608
Muxing mode : MPEG Video / EIA-708
Muxing mode, more info : Muxed in Video #1
Duration : 21mn 16s
Stream size : 0.00 Byte (0%)
Text #4
ID : 4113 (0x1011)608-0
Menu ID : 1 (0x1)
Format : EIA-608
Muxing mode : MPEG Video / EIA-708
Muxing mode, more info : Muxed in Video #1
Duration : 21mn 16s
Stream size : 0.00 Byte (0%)
Text #5
ID : 4113 (0x1011)1
Menu ID : 1 (0x1)
Format : EIA-708
Muxing mode : MPEG Video / EIA-708
Muxing mode, more info : Muxed in Video #1
Duration : 21mn 16s
Stream size : 0.00 Byte (0%)

s04e05

General
ID : 1
Complete name : Y:\Video\The.Big.Bang.Theory.S04.rus.eng.1080i.HDTV.[Kuraj-Bambey]\the.big.bang.theory.s04e05.hdtv.1080i.mpeg2.dd_5.1.sub.eng.rus.kuraj_bambey.ts
Format : MPEG-TS
File size : 2.69 GiB
Duration : 20mn 15s
Overall bit rate : 19.0 Mbps
Maximum Overall bit rate : 35.5 Mbps
Video
ID : 4113 (0x1011)
Menu ID : 1 (0x1)
Format : MPEG Video
Format version : Version 2
Format profile : Main@High
Format settings, BVOP : Yes
Format settings, Matrix : Default
Duration : 20mn 15s
Bit rate mode : Variable
Bit rate : 16.9 Mbps
Nominal bit rate : 17.6 Mbps
Width : 1 920 pixels
Height : 1 080 pixels
Display aspect ratio : 16:9
Frame rate : 29.970 fps
Standard : Component
Resolution : 8 bits
Colorimetry : 4:2:0
Scan type : Interlaced
Scan order : Top Field First
Bits/(Pixel*Frame) : 0.272
Stream size : 2.40 GiB (89%)
Audio #1
ID : 4352 (0x1100)
Menu ID : 1 (0x1)
Format : AC-3
Format/Info : Audio Coding 3
Duration : 20mn 15s
Bit rate mode : Constant
Bit rate : 384 Kbps
Channel(s) : 6 channels
Channel positions : Front: L C R, Surround: L R, LFE
Sampling rate : 48.0 KHz
Stream size : 55.6 MiB (2%)
Language : Russian
Audio #2
ID : 4353 (0x1101)
Menu ID : 1 (0x1)
Format : AC-3
Format/Info : Audio Coding 3
Duration : 20mn 15s
Bit rate mode : Constant
Bit rate : 384 Kbps
Channel(s) : 6 channels
Channel positions : Front: L C R, Surround: L R, LFE
Sampling rate : 48.0 KHz
Stream size : 55.6 MiB (2%)
Language : English
Text #1
ID : 4608 (0x1200)
Menu ID : 1 (0x1)
Format : PGS
Video delay : 3s 637ms
Language : Russian
Text #2
ID : 4609 (0x1201)
Menu ID : 1 (0x1)
Format : PGS
Video delay : 3s 637ms
Language : English
Text #3
ID : 4113 (0x1011)608-1
Menu ID : 1 (0x1)
Format : EIA-608
Muxing mode : MPEG Video / EIA-708
Muxing mode, more info : Muxed in Video #1
Duration : 20mn 15s
Stream size : 0.00 Byte (0%)
Text #4
ID : 4113 (0x1011)608-0
Menu ID : 1 (0x1)
Format : EIA-608
Muxing mode : MPEG Video / EIA-708
Muxing mode, more info : Muxed in Video #1
Duration : 20mn 15s
Stream size : 0.00 Byte (0%)
Text #5
ID : 4113 (0x1011)1
Menu ID : 1 (0x1)
Format : EIA-708
Muxing mode : MPEG Video / EIA-708
Muxing mode, more info : Muxed in Video #1
Duration : 20mn 15s
Stream size : 0.00 Byte (0%)

s04e04

General
ID : 1
Complete name : Y:\Video\The.Big.Bang.Theory.S04.rus.eng.1080i.HDTV.[Kuraj-Bambey]\the.big.bang.theory.s04e04.hdtv.1080i.mpeg2.dd_5.1.sub.eng.rus.kuraj_bambey.ts
Format : MPEG-TS
File size : 2.55 GiB
Duration : 19mn 14s
Overall bit rate : 19.0 Mbps
Maximum Overall bit rate : 35.5 Mbps
Video
ID : 4113 (0x1011)
Menu ID : 1 (0x1)
Format : MPEG Video
Format version : Version 2
Format profile : Main@High
Format settings, BVOP : Yes
Format settings, Matrix : Default
Duration : 19mn 14s
Bit rate mode : Variable
Bit rate : 16.9 Mbps
Nominal bit rate : 17.6 Mbps
Width : 1 920 pixels
Height : 1 080 pixels
Display aspect ratio : 16:9
Frame rate : 29.970 fps
Standard : Component
Resolution : 8 bits
Colorimetry : 4:2:0
Scan type : Interlaced
Scan order : Top Field First
Bits/(Pixel*Frame) : 0.272
Stream size : 2.27 GiB (89%)
Audio #1
ID : 4352 (0x1100)
Menu ID : 1 (0x1)
Format : AC-3
Format/Info : Audio Coding 3
Duration : 19mn 14s
Bit rate mode : Constant
Bit rate : 384 Kbps
Channel(s) : 6 channels
Channel positions : Front: L C R, Surround: L R, LFE
Sampling rate : 48.0 KHz
Stream size : 52.8 MiB (2%)
Language : Russian
Audio #2
ID : 4353 (0x1101)
Menu ID : 1 (0x1)
Format : AC-3
Format/Info : Audio Coding 3
Duration : 19mn 14s
Bit rate mode : Constant
Bit rate : 384 Kbps
Channel(s) : 6 channels
Channel positions : Front: L C R, Surround: L R, LFE
Sampling rate : 48.0 KHz
Stream size : 52.8 MiB (2%)
Language : English
Text #1
ID : 4608 (0x1200)
Menu ID : 1 (0x1)
Format : PGS
Duration : 19mn 9s
Video delay : 1s 468ms
Language : Russian
Text #2
ID : 4609 (0x1201)
Menu ID : 1 (0x1)
Format : PGS
Video delay : 1s 468ms
Language : English
Text #3
ID : 4113 (0x1011)608-1
Menu ID : 1 (0x1)
Format : EIA-608
Muxing mode : MPEG Video / EIA-708
Muxing mode, more info : Muxed in Video #1
Duration : 19mn 14s
Stream size : 0.00 Byte (0%)
Text #4
ID : 4113 (0x1011)608-0
Menu ID : 1 (0x1)
Format : EIA-608
Muxing mode : MPEG Video / EIA-708
Muxing mode, more info : Muxed in Video #1
Duration : 19mn 14s
Stream size : 0.00 Byte (0%)
Text #5
ID : 4113 (0x1011)1
Menu ID : 1 (0x1)
Format : EIA-708
Muxing mode : MPEG Video / EIA-708
Muxing mode, more info : Muxed in Video #1
Duration : 19mn 14s
Stream size : 0.00 Byte (0%)

s04e03

General
ID : 1
Complete name : Y:\Video\The.Big.Bang.Theory.S04.rus.eng.1080i.HDTV.[Kuraj-Bambey]\the.big.bang.theory.s04e03.hdtv.1080i.mpeg2.dd_5.1.sub.eng.rus.kuraj_bambey.ts
Format : MPEG-TS
File size : 2.81 GiB
Duration : 21mn 10s
Overall bit rate : 19.0 Mbps
Maximum Overall bit rate : 35.5 Mbps
Video
ID : 4113 (0x1011)
Menu ID : 1 (0x1)
Format : MPEG Video
Format version : Version 2
Format profile : Main@High
Format settings, BVOP : Yes
Format settings, Matrix : Default
Duration : 21mn 10s
Bit rate mode : Variable
Bit rate : 16.9 Mbps
Nominal bit rate : 17.6 Mbps
Width : 1 920 pixels
Height : 1 080 pixels
Display aspect ratio : 16:9
Frame rate : 29.970 fps
Standard : Component
Resolution : 8 bits
Colorimetry : 4:2:0
Scan type : Interlaced
Scan order : Top Field First
Bits/(Pixel*Frame) : 0.272
Stream size : 2.50 GiB (89%)
Audio #1
ID : 4352 (0x1100)
Menu ID : 1 (0x1)
Format : AC-3
Format/Info : Audio Coding 3
Duration : 21mn 10s
Bit rate mode : Constant
Bit rate : 384 Kbps
Channel(s) : 6 channels
Channel positions : Front: L C R, Surround: L R, LFE
Sampling rate : 48.0 KHz
Stream size : 58.1 MiB (2%)
Language : Russian
Audio #2
ID : 4353 (0x1101)
Menu ID : 1 (0x1)
Format : AC-3
Format/Info : Audio Coding 3
Duration : 21mn 10s
Bit rate mode : Constant
Bit rate : 384 Kbps
Channel(s) : 6 channels
Channel positions : Front: L C R, Surround: L R, LFE
Sampling rate : 48.0 KHz
Stream size : 58.1 MiB (2%)
Language : English
Text #1
ID : 4608 (0x1200)
Menu ID : 1 (0x1)
Format : PGS
Video delay : 1s 568ms
Language : Russian
Text #2
ID : 4609 (0x1201)
Menu ID : 1 (0x1)
Format : PGS
Video delay : 1s 568ms
Language : English
Text #3
ID : 4113 (0x1011)608-1
Menu ID : 1 (0x1)
Format : EIA-608
Muxing mode : MPEG Video / EIA-708
Muxing mode, more info : Muxed in Video #1
Duration : 21mn 10s
Stream size : 0.00 Byte (0%)
Text #4
ID : 4113 (0x1011)608-0
Menu ID : 1 (0x1)
Format : EIA-608
Muxing mode : MPEG Video / EIA-708
Muxing mode, more info : Muxed in Video #1
Duration : 21mn 10s
Stream size : 0.00 Byte (0%)
Text #5
ID : 4113 (0x1011)1
Menu ID : 1 (0x1)
Format : EIA-708
Muxing mode : MPEG Video / EIA-708
Muxing mode, more info : Muxed in Video #1
Duration : 21mn 10s
Stream size : 0.00 Byte (0%)

s04e02

General
ID : 1
Complete name : Y:\Video\The.Big.Bang.Theory.S04.rus.eng.1080i.HDTV.[Kuraj-Bambey]\the.big.bang.theory.s04e02.hdtv.1080i.mpeg2.dd_5.1.sub.eng.rus.kuraj_bambey.ts
Format : MPEG-TS
File size : 2.43 GiB
Duration : 20mn 31s
Overall bit rate : 16.9 Mbps
Maximum Overall bit rate : 35.5 Mbps
Video
ID : 4113 (0x1011)
Menu ID : 1 (0x1)
Format : MPEG Video
Format version : Version 2
Format profile : Main@High
Format settings, BVOP : Yes
Format settings, Matrix : Default
Duration : 20mn 31s
Bit rate mode : Variable
Bit rate : 15.0 Mbps
Nominal bit rate : 17.1 Mbps
Width : 1 920 pixels
Height : 1 080 pixels
Display aspect ratio : 16:9
Frame rate : 29.970 fps
Standard : Component
Resolution : 8 bits
Colorimetry : 4:2:0
Bits/(Pixel*Frame) : 0.241
Stream size : 2.15 GiB (89%)
Audio #1
ID : 4352 (0x1100)
Menu ID : 1 (0x1)
Format : AC-3
Format/Info : Audio Coding 3
Duration : 20mn 31s
Bit rate mode : Constant
Bit rate : 384 Kbps
Channel(s) : 6 channels
Channel positions : Front: L C R, Surround: L R, LFE
Sampling rate : 48.0 KHz
Stream size : 56.4 MiB (2%)
Language : Russian
Audio #2
ID : 4353 (0x1101)
Menu ID : 1 (0x1)
Format : AC-3
Format/Info : Audio Coding 3
Duration : 20mn 31s
Bit rate mode : Constant
Bit rate : 384 Kbps
Channel(s) : 6 channels
Channel positions : Front: L C R, Surround: L R, LFE
Sampling rate : 48.0 KHz
Stream size : 56.4 MiB (2%)
Language : English
Text #1
ID : 4608 (0x1200)
Menu ID : 1 (0x1)
Format : PGS
Video delay : 2s 769ms
Language : Russian
Text #2
ID : 4609 (0x1201)
Menu ID : 1 (0x1)
Format : PGS
Video delay : 2s 769ms
Language : English
Text #3
ID : 4113 (0x1011)608-1
Menu ID : 1 (0x1)
Format : EIA-608
Muxing mode : MPEG Video / EIA-708
Muxing mode, more info : Muxed in Video #1
Duration : 20mn 31s
Stream size : 0.00 Byte (0%)
Text #4
ID : 4113 (0x1011)608-0
Menu ID : 1 (0x1)
Format : EIA-608
Muxing mode : MPEG Video / EIA-708
Muxing mode, more info : Muxed in Video #1
Duration : 20mn 31s
Stream size : 0.00 Byte (0%)
Text #5
ID : 4113 (0x1011)1
Menu ID : 1 (0x1)
Format : EIA-708
Muxing mode : MPEG Video / EIA-708
Muxing mode, more info : Muxed in Video #1
Duration : 20mn 31s
Stream size : 0.00 Byte (0%)

s04e01

General
ID : 1
Complete name : Y:\Video\The.Big.Bang.Theory.S04.rus.eng.1080i.HDTV.[Kuraj-Bambey]\the.big.bang.theory.s04e01.hdtv.1080i.mpeg2.dd_5.1.sub.eng.rus.kuraj_bambey.ts
Format : MPEG-TS
File size : 2.80 GiB
Duration : 21mn 5s
Overall bit rate : 19.0 Mbps
Maximum Overall bit rate : 35.5 Mbps
Video
ID : 4113 (0x1011)
Menu ID : 1 (0x1)
Format : MPEG Video
Format version : Version 2
Format profile : Main@High
Format settings, BVOP : Yes
Format settings, Matrix : Default
Duration : 21mn 5s
Bit rate mode : Variable
Bit rate : 16.9 Mbps
Nominal bit rate : 17.6 Mbps
Width : 1 920 pixels
Height : 1 080 pixels
Display aspect ratio : 16:9
Frame rate : 29.970 fps
Standard : Component
Resolution : 8 bits
Colorimetry : 4:2:0
Scan type : Interlaced
Scan order : Top Field First
Bits/(Pixel*Frame) : 0.272
Stream size : 2.49 GiB (89%)
Audio #1
ID : 4352 (0x1100)
Menu ID : 1 (0x1)
Format : AC-3
Format/Info : Audio Coding 3
Duration : 21mn 5s
Bit rate mode : Constant
Bit rate : 384 Kbps
Channel(s) : 6 channels
Channel positions : Front: L C R, Surround: L R, LFE
Sampling rate : 48.0 KHz
Stream size : 57.9 MiB (2%)
Language : Russian
Audio #2
ID : 4353 (0x1101)
Menu ID : 1 (0x1)
Format : AC-3
Format/Info : Audio Coding 3
Duration : 21mn 5s
Bit rate mode : Constant
Bit rate : 384 Kbps
Channel(s) : 6 channels
Channel positions : Front: L C R, Surround: L R, LFE
Sampling rate : 48.0 KHz
Stream size : 57.9 MiB (2%)
Language : English
Text #1
ID : 4608 (0x1200)
Menu ID : 1 (0x1)
Format : PGS
Video delay : 5s 172ms
Language : Russian
Text #2
ID : 4609 (0x1201)
Menu ID : 1 (0x1)
Format : PGS
Video delay : 1s 501ms
Language : English
Text #3
ID : 4113 (0x1011)608-1
Menu ID : 1 (0x1)
Format : EIA-608
Muxing mode : MPEG Video / EIA-708
Muxing mode, more info : Muxed in Video #1
Duration : 21mn 5s
Stream size : 0.00 Byte (0%)
Text #4
ID : 4113 (0x1011)608-0
Menu ID : 1 (0x1)
Format : EIA-608
Muxing mode : MPEG Video / EIA-708
Muxing mode, more info : Muxed in Video #1
Duration : 21mn 5s
Stream size : 0.00 Byte (0%)
Text #5
ID : 4113 (0x1011)1
Menu ID : 1 (0x1)
Format : EIA-708
Muxing mode : MPEG Video / EIA-708
Muxing mode, more info : Muxed in Video #1
Duration : 21mn 5s
Stream size : 0.00 Byte (0%)

Скриншоты

Внимание! Раздача ведётся путём добавления новых серий

Внимание! Раздача ведётся путём добавления новых серий; при каждом добавлении создаётся новый торрент. Чтобы начать докачку новой серии, пользователям необходимо сделать следующее: (1) остановить скачивание, (2) удалить старый торрент у себя из клиента (старые серии удалять не надо), (3) скачать новый торрент и запустить его у себя в клиенте вместо старого, при этом указать клиенту путь в старую папку куда и должно происходить скачивание новых серий.
Ваш клиент при этом должен произвести хеширование (проверку) старой папки (если не производит сам - помогите ему сделать это), и будет докачивать только те серии которых у вас ещё нет. Старые серии при этом не удаляются, а продолжают раздаваться!
Eсли вы уже удалили старые серии, то предотвратить повторную закачку старых серий можно, отжав галочку в соответствующих местах при запуске нового торрента.
Как скачать отдельный файл
Благодарю kukushka за помощь в создании раздачи.
Вы не можете начинать темы
Вы не можете отвечать на сообщения
Вы не можете редактировать свои сообщения
Вы не можете удалять свои сообщения
Вы не можете голосовать в опросах
Вы не можете прикреплять файлы к сообщениям
Вы можете скачивать файлы
!ВНИМАНИЕ!

Сайт не предоставляет электронные версии произведений, а занимается лишь коллекционированием и каталогизацией ссылок, присылаемых и публикуемых на форуме нашими читателями. Если вы являетесь правообладателем какого-либо представленного материала и не желаете, чтобы ссылка на него находилась в нашем каталоге, свяжитесь с нами, и мы незамедлительно удалим ее. Файлы для обмена на трекере предоставлены пользователями сайта, и администрация не несет ответственности за их содержание. Просьба не заливать файлы, защищенные авторскими правами, а также файлы нелегального содержания!

Искали программы, игры, дополнения, музыка mp3, аниме, аудио книги, журналы? Добро пожаловать на свободный торрент трекер B-Tor.Ru, у нас можно скачать бесплатно, без смс и регистрации и прочих ограничений лучшие, отборные сборки программ, игр. Скачать торрентом не составит труда даже не опытному пользователю. Раздачи ежедневно обновляются, только лучшие и качественные раздачи, подробные описания и скриншоты. Огромная коллекция программ для работы со звуком, графикой, дизайном, а так же множество плагинов и инструментов к ним с подробной инструкцией и рекомендациями. Прошивки для навигаторов, карты. Разнообразные игры, для Windows, Linux. В коллекцие есть и старые игры любых жанров, Rpg, Action, Shooter, strategy Множество дополнений, модификаций, сценариев для популярных игр в жанре экш, рпг, гонки, стратегии, логические игры. Множество аддонов и сценариев для Microsoft Flight Simulator Большая коллекция книг, учебников. Если нет возможности купить печатное издание - смело скачивайте цифровую версию книги или, быть может, журнала. Не любите читать - можно загрузить бесплатно аудикнигу. Для веб дизайнеров и программистов так же найдется множество специализированного софта, таких как: редакторы с подсветкой, среды программирования, компоненты, системы управления базами данных, разнообразные скрипты и шаблоны. Не так давно у нас появился материал для автолюбителей и владельцев мото - оригинальные и неоригинальные каталоги запчастей, книги и журналы по ремонту и обслуживанию, видеоуроки, статьи по чип тюнингу, прошивкам. Процедура получения контента элементарная, достаточно просто скачать торрент файл и добавить его в загрузку в вашем торрент клиенте. Если у вас нет специального торрент клиента, вы можете его скачать у нас.