(IDM, Electronic, Post Rock) [WEB] cssc - The Lonely Robot - 2010, FLAC (tracks), lossless 

Цитировать
cssc -- The Lonely Robot--Жанр: IDM, Electronic, Post Rock
Носитель: WEB
Страна-производитель диска (релиза): USA
Год издания: 2010
Издатель (лейбл): cssc selfreleased
Номер по каталогу: none
Страна исполнителя (группы): USA
Аудиокодек: FLAC (*.flac)
Тип рипа: tracks
Битрейт аудио: lossless
Продолжительность: 00:56:00
Источник (релизер): Bandcamp
Наличие сканов в содержимом раздачи: нет-Треклист:
01. Assembly (05:47)
02. First Steps (08:27)
03. Error, Syntax (09:02)
04. Data Collection (06:29)
05. Answers (09:18)
06. The Lonely Robot (09:05)
07. Repeat 0 (07:51)

Лог проверки качества

AUDIOCHECKER v2.0 beta (build 457) - by Dester - opdester@freemail.hu~~~~~~~~~~~~~~~~~~~~~~~~~~~~~~~~~~-=== DO NOT EDIT THIS FILE! ===-
Path: ...\cssc - The Lonely Robot
1 -=- 01 Assembly.flac -=- CDDA (100%)2 -=- 02 First Steps.flac -=- CDDA (100%)3 -=- 03 Error, Syntax.flac -=- CDDA (100%)4 -=- 04 Data Collection.flac -=- CDDA (43%)5 -=- 05 Answers.flac -=- CDDA (100%)6 -=- 06 The Lonely Robot.flac -=- CDDA (43%)7 -=- 07 Repeat 0.flac -=- CDDA (100%)
Summary 83,71% CDDA
109182356

Динамический диапазон

foobar2000 1.3.16 / Замер динамического диапазона (DR) 1.1.1Дата отчёта:  2018-07-05 15:45:32
--------------------------------------------------------------------------------Анализ: cssc / The Lonely Robot--------------------------------------------------------------------------------
DR Пики RMS Продолжительность трека--------------------------------------------------------------------------------DR6 -0.03 дБ -8.90 дБ 5:47 01-AssemblyDR8 -0.29 дБ -10.99 дБ 8:27 02-First StepsDR9 -0.72 дБ -11.59 дБ 9:02 03-Error, SyntaxDR6 0.00 дБ -8.14 дБ 6:29 04-Data CollectionDR7 -0.05 дБ -10.51 дБ 9:18 05-AnswersDR6 0.00 дБ -10.17 дБ 9:05 06-The Lonely RobotDR10 -0.77 дБ -11.96 дБ 7:51 07-Repeat 0--------------------------------------------------------------------------------
Количество треков: 7Реальные значения DR: DR8
Частота: 44100 ГцКаналов: 2Разрядность: 16Битрейт: 838 кбит/сКодек: FLAC================================================================================
Вы не можете начинать темы
Вы не можете отвечать на сообщения
Вы не можете редактировать свои сообщения
Вы не можете удалять свои сообщения
Вы не можете голосовать в опросах
Вы не можете прикреплять файлы к сообщениям
Вы можете скачивать файлы
!ВНИМАНИЕ!

Сайт не предоставляет электронные версии произведений, а занимается лишь коллекционированием и каталогизацией ссылок, присылаемых и публикуемых на форуме нашими читателями. Если вы являетесь правообладателем какого-либо представленного материала и не желаете, чтобы ссылка на него находилась в нашем каталоге, свяжитесь с нами, и мы незамедлительно удалим ее. Файлы для обмена на трекере предоставлены пользователями сайта, и администрация не несет ответственности за их содержание. Просьба не заливать файлы, защищенные авторскими правами, а также файлы нелегального содержания!

Искали программы, игры, дополнения, музыка mp3, аниме, аудио книги, журналы? Добро пожаловать на свободный торрент трекер B-Tor.Ru, у нас можно скачать бесплатно, без смс и регистрации и прочих ограничений лучшие, отборные сборки программ, игр. Скачать торрентом не составит труда даже не опытному пользователю. Раздачи ежедневно обновляются, только лучшие и качественные раздачи, подробные описания и скриншоты. Огромная коллекция программ для работы со звуком, графикой, дизайном, а так же множество плагинов и инструментов к ним с подробной инструкцией и рекомендациями. Прошивки для навигаторов, карты. Разнообразные игры, для Windows, Linux. В коллекцие есть и старые игры любых жанров, Rpg, Action, Shooter, strategy Множество дополнений, модификаций, сценариев для популярных игр в жанре экш, рпг, гонки, стратегии, логические игры. Множество аддонов и сценариев для Microsoft Flight Simulator Большая коллекция книг, учебников. Если нет возможности купить печатное издание - смело скачивайте цифровую версию книги или, быть может, журнала. Не любите читать - можно загрузить бесплатно аудикнигу. Для веб дизайнеров и программистов так же найдется множество специализированного софта, таких как: редакторы с подсветкой, среды программирования, компоненты, системы управления базами данных, разнообразные скрипты и шаблоны. Не так давно у нас появился материал для автолюбителей и владельцев мото - оригинальные и неоригинальные каталоги запчастей, книги и журналы по ремонту и обслуживанию, видеоуроки, статьи по чип тюнингу, прошивкам. Процедура получения контента элементарная, достаточно просто скачать торрент файл и добавить его в загрузку в вашем торрент клиенте. Если у вас нет специального торрент клиента, вы можете его скачать у нас.