(IDM, Ambient, Trance) [CD] VA - VREMЯ VПERЁD! Russkiй Pizdэnц - 1993, FLAC (image+.cue), lossless 

Цитировать
VREMЯ VПERЁD! Russkiй Pizdэnц
Жанр: IDM, Ambient, Trance
Носитель: CD
Страна-производитель диска (релиза): Россия
Год издания: 1993
Издатель (лейбл): Air Fish Records
Номер по каталогу: LAF 1001
Аудиокодек: FLAC (*.flac)
Тип рипа: image+.cue
Битрейт аудио: lossless
Продолжительность: 62:05
Источник (релизер): собственный рип
Наличие сканов в содержимом раздачи: да
Треклист:
01. Sviridov - Vremя Vпеrёd [1:28]
02. Block Four - Who Works With You? [6:14]
03. The Fantom - Planet Caladan [5:15]
04. X-Time - X-Time [5:25]
05. Block Four - It's A Pity [5:02]
06. The Fantom - Memento Mori [4:16]
07. Zima - Keep Smiling [5:42]
08. NOT - Fearlessly [7:10]
09. New Composers - L [2:34]
10. The Fantom - Solenoids [4:19]
11. New Composers - Встречные Потоки [4:17]
12. NOT - Newstonot [4:30]
13. Block Four - Where Did Pastor Shlag Go? [5:55]

Лог создания рипа

Exact Audio Copy V1.3 from 2. September 2016
EAC extraction logfile from 7. March 2017, 18:01
Various / VREMЯ VПERЁD! Russkiй Pizdэnц
Used drive : ASUS DRW-24B5ST Adapter: 1 ID: 0
Read mode : SecureUtilize accurate stream : YesDefeat audio cache : YesMake use of C2 pointers : No
Read offset correction : 6Overread into Lead-In and Lead-Out : NoFill up missing offset samples with silence : YesDelete leading and trailing silent blocks : NoNull samples used in CRC calculations : YesUsed interface : Native Win32 interface for Win NT & 2000
Used output format : User Defined EncoderSelected bitrate : 128 kBit/sQuality : HighAdd ID3 tag : NoCommand line compressor : D:\flac-1.3.2-win\win64\flac.exeAdditional command line options : -8 -V -T "ARTIST=%artist%" -T "TITLE=%title%" -T "ALBUM=%albumtitle%" -T "DATE=%year%" -T "TRACKNUMBER=%tracknr%" -T "GENRE=%genre%" -T "COMMENT=ripped by Andy aka yetiisyou" %source%
TOC of the extracted CD
Track | Start | Length | Start sector | End sector --------------------------------------------------------- 1 | 0:00.00 | 1:27.40 | 0 | 6564 2 | 1:27.40 | 6:13.50 | 6565 | 34589 3 | 7:41.15 | 5:14.55 | 34590 | 58194 4 | 12:55.70 | 5:24.60 | 58195 | 82554 5 | 18:20.55 | 5:02.12 | 82555 | 105216 6 | 23:22.67 | 4:16.00 | 105217 | 124416 7 | 27:38.67 | 5:42.20 | 124417 | 150086 8 | 33:21.12 | 7:09.50 | 150087 | 182311 9 | 40:30.62 | 2:33.48 | 182312 | 193834 10 | 43:04.35 | 4:18.67 | 193835 | 213251 11 | 47:23.27 | 4:17.25 | 213252 | 232551 12 | 51:40.52 | 4:29.45 | 232552 | 252771 13 | 56:10.22 | 5:54.53 | 252772 | 279374
Range status and errors
Selected range
Filename E:\!Ripped by Andy aka yetiisyou\VA - VREMЯ VПERЁD! Russkiй Pizdэnц [LAF 1001] [1993]\Various - VREMЯ VПERЁD! Russkiй Pizdэnц.wav
Peak level 95.1 % Extraction speed 9.4 X Range quality 100.0 % Test CRC 464B0333 Copy CRC 464B0333 Copy OK
No errors occurred
AccurateRip summary
Track 1 not present in databaseTrack 2 not present in databaseTrack 3 not present in databaseTrack 4 not present in databaseTrack 5 not present in databaseTrack 6 not present in databaseTrack 7 not present in databaseTrack 8 not present in databaseTrack 9 not present in databaseTrack 10 not present in databaseTrack 11 not present in databaseTrack 12 not present in databaseTrack 13 not present in database
None of the tracks are present in the AccurateRip database
End of status report
---- CUETools DB Plugin V2.1.6
[CTDB TOCID: OXr0.sjuiLWXxqcI7PhsvIPUXsE-] disk not present in databaseSubmit result: OXr0.sjuiLWXxqcI7PhsvIPUXsE- has been uploaded
==== Log checksum 3CAF1786B289515EE1180F43F75ADD7D48C175FAE9B7EA3D989C4C3B1E8868EC ====

Содержание индексной карты (.CUE)

REM DATE 1993REM DISCID 9C0E8D0DREM COMMENT "ExactAudioCopy v1.3"PERFORMER "Various"TITLE "VREMЯ VПERЁD! Russkiй Pizdэnц"REM COMPOSER ""FILE "Various - VREMЯ VПERЁD! Russkiй Pizdэnц.flac" WAVE  TRACK 01 AUDIO    TITLE "Vremя Vпеrёd"    PERFORMER "Sviridov"    REM COMPOSER ""    INDEX 01 00:00:00  TRACK 02 AUDIO    TITLE "Who Works With You?"    PERFORMER "Block Four"    REM COMPOSER ""    INDEX 00 01:27:37    INDEX 01 01:27:40  TRACK 03 AUDIO    TITLE "Planet Caladan"    PERFORMER "The Fantom"    REM COMPOSER ""    INDEX 00 07:41:12    INDEX 01 07:41:15  TRACK 04 AUDIO    TITLE "X-Time"    PERFORMER "X-Time"    REM COMPOSER ""    INDEX 00 12:55:67    INDEX 01 12:55:70  TRACK 05 AUDIO    TITLE "It's A Pity"    PERFORMER "Block Four"    REM COMPOSER ""    INDEX 00 18:20:52    INDEX 01 18:20:55  TRACK 06 AUDIO    TITLE "Memento Mori"    PERFORMER "The Fantom"    REM COMPOSER ""    INDEX 00 23:22:65    INDEX 01 23:22:67  TRACK 07 AUDIO    TITLE "Keep Smiling"    PERFORMER "Zima"    REM COMPOSER ""    INDEX 00 27:38:65    INDEX 01 27:38:67  TRACK 08 AUDIO    TITLE "Fearlessly"    PERFORMER "NOT"    REM COMPOSER ""    INDEX 00 33:21:10    INDEX 01 33:21:12  TRACK 09 AUDIO    TITLE "L"    PERFORMER "New Composers"    REM COMPOSER ""    INDEX 00 40:30:60    INDEX 01 40:30:62  TRACK 10 AUDIO    TITLE "Solenoids"    PERFORMER "The Fantom"    REM COMPOSER ""    INDEX 00 43:04:32    INDEX 01 43:04:35  TRACK 11 AUDIO    TITLE "Встречные Потоки"    PERFORMER "New Composers"    REM COMPOSER ""    INDEX 00 47:23:25    INDEX 01 47:23:27  TRACK 12 AUDIO    TITLE "Newstonot"    PERFORMER "NOT"    REM COMPOSER ""    INDEX 00 51:40:50    INDEX 01 51:40:52  TRACK 13 AUDIO    TITLE "Where Did Pastor Shlag Go?"    PERFORMER "Block Four"    REM COMPOSER ""    INDEX 00 56:10:20    INDEX 01 56:10:22

Об альбоме (сборнике)

Второй по счету русский техно сборник.
С созданием оного ходит множество легенд и притч.
Да и в истории русской музыки ему, по-видимому,суждено остаться в подобном
положении, т.к. его тиражирование и судьба по сей день не ясна!
В свое время его создатели продюсер Михаил Жигульский и компилятор Стас
Силкин вели откровенную войну за правообладание.
В ходе которой на обложке CD наряду с Air Fish records скромно красуется
лейбл Stasi Records.
Музыку можно отнести к экспериментальному трансу с интересными миграциями в
эсид хаус, нойз техно и техно-панк.
В качестве интро сборника красуется эпохальное произведение русского
композитора Г.В. Свиридова, с согласия которого и был использован самый
известный фрагмент пьесы "Время вперед", являющийся и по сей день заставкой
для ТВ программы "Новости".
3 композиции со своего первого альбома на сборнике представляет трансовый
дуэт Block Four,включая известную работу "Ах как жаль!" с Юрием Орловым на
вокале.
Впервые на сборнике появляется питерский дуэт The Fantom, в состав которого
входят две культовые фигуры отечественной электронной сцены: Михаил Малин и
Олег Костров. Музыка имеет трансовый характер с меланхоличными мелодиями и
хоповыми ритмами.
Впервые здесь появляется и известный московский проект "Виды Рыб",правда под
специальным названием NOT (not of them) .Музыканты на этой компиляции
предстали с самой странной музыкальной составляющей. В основе музыки NOT
лежат танцевальные транс ритмы, которые погружаются по мере прослушивания в
шумовые просторы сэмплерных глубин.
Но Виталий Штерн и Игорь Колядный не ограничиваются только проектом NOT,
совместно с Гошей Рыжим и Костей Силкиным их перу принадлежит и деятельность
проект ZИMA,который довольно забавно соединяет кислотную эстетику с
сэмплоделикой и панком.
Сэмплекрная сторона проекта ZИMA особенно интересна, т.к. по своей сути он
продолжает деятельность Братьев по Разуму. В музыке Зимы встречаются и
взаимодействуют сэмплы из самых разных западных источников,погруженные в
магнитирующую атмосферу кислотной революции в городе Москва.
На редкость жизнерадостно и танцевльно звучат Новые Композиторы образца
1992-93.
Композиции "Встречные потоки" и "i" не вошли ни в один из многочисленных
альбомов группы.
И наконец, нельзя не упомянуть проект авторов этой подборки- братьев
Силкиных, которые представили свой проект X-Time, пропитанный глубинной XTC
танцевальностью.
Вы не можете начинать темы
Вы не можете отвечать на сообщения
Вы не можете редактировать свои сообщения
Вы не можете удалять свои сообщения
Вы не можете голосовать в опросах
Вы не можете прикреплять файлы к сообщениям
Вы можете скачивать файлы
!ВНИМАНИЕ!

Сайт не предоставляет электронные версии произведений, а занимается лишь коллекционированием и каталогизацией ссылок, присылаемых и публикуемых на форуме нашими читателями. Если вы являетесь правообладателем какого-либо представленного материала и не желаете, чтобы ссылка на него находилась в нашем каталоге, свяжитесь с нами, и мы незамедлительно удалим ее. Файлы для обмена на трекере предоставлены пользователями сайта, и администрация не несет ответственности за их содержание. Просьба не заливать файлы, защищенные авторскими правами, а также файлы нелегального содержания!

Искали программы, игры, дополнения, музыка mp3, аниме, аудио книги, журналы? Добро пожаловать на свободный торрент трекер B-Tor.Ru, у нас можно скачать бесплатно, без смс и регистрации и прочих ограничений лучшие, отборные сборки программ, игр. Скачать торрентом не составит труда даже не опытному пользователю. Раздачи ежедневно обновляются, только лучшие и качественные раздачи, подробные описания и скриншоты. Огромная коллекция программ для работы со звуком, графикой, дизайном, а так же множество плагинов и инструментов к ним с подробной инструкцией и рекомендациями. Прошивки для навигаторов, карты. Разнообразные игры, для Windows, Linux. В коллекцие есть и старые игры любых жанров, Rpg, Action, Shooter, strategy Множество дополнений, модификаций, сценариев для популярных игр в жанре экш, рпг, гонки, стратегии, логические игры. Множество аддонов и сценариев для Microsoft Flight Simulator Большая коллекция книг, учебников. Если нет возможности купить печатное издание - смело скачивайте цифровую версию книги или, быть может, журнала. Не любите читать - можно загрузить бесплатно аудикнигу. Для веб дизайнеров и программистов так же найдется множество специализированного софта, таких как: редакторы с подсветкой, среды программирования, компоненты, системы управления базами данных, разнообразные скрипты и шаблоны. Не так давно у нас появился материал для автолюбителей и владельцев мото - оригинальные и неоригинальные каталоги запчастей, книги и журналы по ремонту и обслуживанию, видеоуроки, статьи по чип тюнингу, прошивкам. Процедура получения контента элементарная, достаточно просто скачать торрент файл и добавить его в загрузку в вашем торрент клиенте. Если у вас нет специального торрент клиента, вы можете его скачать у нас.